Harry Potter and the Deathly Hallows Part 2(2011) DVDRiP.XViD-real HQ.torrent

Size 718.411 MB   0 seeders     Added 2011-08-26 20:35:45

Stream torrent
Starting‥ You need BitLord! Get it from BitLord.com
To download or stream you need BitLord. Visit them at BitLord.com
 Video                                                                        
  ID                               : 0                                        
  Format                           : MPEG-4 Visual                            
  Format profile                   : Advanced Simple@L5                        
  Format settings, BVOP            : Yes                                       
  Format settings, QPel            : No                                        
  Format settings, GMC             : No warppoints                             
  Format settings, Matrix          : Custom                                    
  Codec ID                         : XVID                                      
  Codec ID/Hint                    : XviD                                      
  Duration                         : 1h 42mn                                   
  Bit rate                         : 1 197 Kbps                                
  Width                            : 680pixels                                 
  Height                           : 272 pixels                                
  Display aspect ratio             : 2.500                                     
  Frame rate                       : 25.000 fps                                
  Color space                      : YUV                                       
  Chroma subsampling               : 4:2:0                                     
  Bit depth                        : 8 bits                                    
  Scan type                        : Progressive                               
  Bits/(Pixel*Frame)               : 0.234                                     
  Stream size                      : 892 MiB (86%)                             
  Writing library                  : XviD 1.2.1 (UTC 2008-12-04)              
                                                                              
                                                                              
 Audio                                                                         
 ID                               : 1                                          
 Format                           : MPEG Audio                                 
 Format/Info                      : Version 1                                  
 Mode extension                   : Layer 3                                    
 Codec ID                         : Joint stereo                               
 Duration                         : 1h 42mn                                    
 Bit rate mode                    : Constant                                   
 Bit rate                         : 128 Kbps                                   
 Channel(s)                       : 2 channels                                 
 Channel positions                : 2 channels              
 Sampling rate                    : 44.1 KHz                                   
 Bit depth                        : 16 bits                                    
 Stream size                      : 302 MiB                                    
 Alignment                        : Aligned on interleaves                     
 Interleave, duration             : 42 ms (1.00 video frame)                   
 Interleave, preload duration     : 512 ms
Harry Potter and the Deathly Hallows Part 2(2011) DVDRiP.XViD-real HQ.avi 718.411 MB
Gathering some info...

Register and log in Isohunt and see no captcha anymore!

4000 symbols left
Hash 5700AA7301AD1893F5A1B3B66AEB6F85A95A6779

Related torrents for "Harry Potter and the Deathly Hallows Part 2(2011) DVDRiP.XViD-real HQ.torrent"

Torrent search:

dvdrip 2011