Gia has a negro problem scene 5

Size 198.685 MB   0 seeders     Added 2011-11-10 23:06:39

Stream torrent
Starting‥ You need BitLord! Get it from BitLord.com
To download or stream you need BitLord. Visit them at BitLord.com
Screenshots: Opens the link, wait 5 seconds and top right press "Skip ad"
 http://adf.ly/3f6xs

General
Full name: H:  Gia has a negro problem scene 5.avi
Format: AVI
Format / Info: Audio Video Interleave
File size: 189 MiB
Duration: 23mn 15s
Overall bit rate: 1 139 Kbps
Writing library: VirtualDub-MPEG2 build 18160/release

Video
Format: MPEG-4 Visual
Format profile: Simple @ L3
Format settings, BVOP: Yes
Format settings, QPel: No
Format settings, GMC: No warppoints
Format settings, Matrix: Default
Codec ID: XVID
Codec ID / Hint: XviD
Duration: 23mn 15s
Data transfer rate: 1 000 Kbps
Width: 528 pixels
Height: 400 pixels
Aspect ratio: 4 / 3
Frame rate: 29.970 fps
Resolution: 24 bits
Colorimetry: 4:2:0
Scan type: Progressive
Bits / (Pixel * Frame): 0.158
Stream size: 166 MiB (88%)
Writing library: XviD 0.0.09 (UTC 2003-03-25)

Audio
Format: MPEG Audio
Format version: Version 1
Format profile: Layer 3
Codec ID: 55
Codec ID / Hint: MP3
Duration: 23mn 15s
Bit rate mode: Constant
Data transfer rate: 128 Kbps
Channel (s): 2 channels
Sampling rate: 48.0 KHz
Resolution: 16 bits
Stream size: 21.3 MiB (11%)
Alignment: Split accross interleaves
Interleave, duration: 33 ms (1.00 video frame)
Interleave, preload duration: 500 ms

Gia has a negro problem scene 5.avi 198.685 MB
Gathering some info...

Register and log in Isohunt and see no captcha anymore!

4000 symbols left
Hash 6E4EE2B7367A5C166E58C633218E1590650BF8C2

Related torrents for "Gia has a negro problem scene 5"