Jayna Oso Vs Richard Mann

Size 219.757 MB   0 seeders     Added 2011-11-11 19:27:30

Stream torrent
Starting‥ You need BitLord! Get it from BitLord.com
10
To download or stream you need BitLord. Visit them at BitLord.com
Screenshots: Ανοίγετε το λινκ, περιμένετε 5 δευτερόλεπτα και πάνω δεξιά πατάτε "Skip ad"
http://adf.ly/3g0ws

General
Full name: H:  Jayna Oso Vs Richard Mann.avi
Format: AVI
Format / Info: Audio Video Interleave
File size: 210 MiB
Duration: 17mn 18s
Overall bit rate: 1 693 Kbps
Recorder application: VirtualDubMod 1.5.10.1 (build 2439/release)
Writing library: VirtualDubMod build 2439/release

Video
Format: MPEG-4 Visual
Format profile: Streaming Video @ L1
Format settings, BVOP: Yes
Format settings, QPel: No
Format settings, GMC: No warppoints
Format settings, Matrix: Default
Muxing mode: Packet Bitstream
Codec ID: XVID
Codec ID / Hint: XviD
Duration: 17mn 18s
Data transfer rate: 1 553 Kbps
Width: 512 pixels
Height: 384 pixels
Aspect ratio: 4 / 3
Frame rate: 29.970 fps
Resolution: 24 bits
Colorimetry: 4:2:0
Scan type: Progressive
Bits / (Pixel * Frame): 0.264
Stream size: 192 MiB (92%)
Writing library: XviD 1.1.0 Beta2 (UTC 2005-04-04)

Audio
Format: MPEG Audio
Format version: Version 1
Format profile: Layer 3
Codec ID: 55
Codec ID / Hint: MP3
Duration: 17mn 18s
Bit rate mode: Constant
Data transfer rate: 128 Kbps
Channel (s): 2 channels
Sampling rate: 48.0 KHz
Resolution: 16 bits
Stream size: 15.8 MiB (8%)
Alignment: Aligned on interleaves
Interleave, duration: 33 ms (1.00 video frame)
Interleave, preload duration: 504 ms

Jayna Oso Vs Richard Mann.avi 219.757 MB
Gathering some info...

Register and log in Isohunt and see no captcha anymore!

4000 symbols left
Hash 888FE225362B7CECF7BD18CA34F081E983C64736