imdb
rating

6.4
ABCD (Any Body Can Dance)

ABCD (Any Body Can Dance) (2013)

Drama, Music

Full description

ABCD Any Body Can Dance 2013 Hindi Movies DvDRip New Source Sample Included Best Quality ~ rDX Verified

Size 739.071 MB   58 seeders     Added 2013-04-25 18:16:40

Stream torrent
Starting‥ You need BitLord! Get it from 1BitLord.com
To download or stream you need BitLord. Visit them at BitLord.com
ABCD: Any Body Can Dance 2013 Hindi Movies DvDRip New Source Sample Included Best Quality ~ 

rDX

Screen Shots :
 
http://myimghosting.serveftp.com/13/ABCDDVD.html
 
http://myimghost.cwahi.net/ABCDDVD.html


Format                                   : AVI
Format/Info                              : Audio Video Interleave
File size                                : 693 MiB
Duration                                 : 2h 22mn
Overall bit rate mode                    : Variable
Overall bit rate                         : 682 Kbps
Writing library                          : MPlayer

Video
ID                                       : 0
Format                                   : MPEG-4 Visual
Format profile                           : Advanced Simple@L5
Format settings, BVOP                    : 1
Format settings, QPel                    : No
Format settings, GMC                     : No warppoints
Format settings, Matrix                  : Custom
Codec ID                                 : XVID
Codec ID/Hint                            : XviD
Duration                                 : 2h 22mn
Bit rate                                 : 586 Kbps
Width                                    : 608 pixels
Height                                   : 256 pixels
Display aspect ratio                     : 2.40:1
Frame rate                               : 23.976 fps
Color space                              : YUV
Chroma subsampling                       : 4:2:0
Bit depth                                : 8 bits
Scan type                                : Progressive
Compression mode                         : Lossy
Bits/(Pixel*Frame)                       : 0.157
Stream size                              : 595 MiB (86%)
Writing library                          : XviD 1.2.1 (UTC 2008-12-04)

Audio
ID                                       : 1
Format                                   : MPEG Audio
Format version                           : Version 1
Format profile                           : Layer 3
Mode                                     : Joint stereo
Codec ID                                 : 55
Codec ID/Hint                            : MP3
Duration                                 : 2h 22mn
Bit rate mode                            : Variable
Bit rate                                 : 85.9 Kbps
Channel(s)                               : 2 channels
Sampling rate                            : 32.0 KHz
Compression mode                         : Lossy
Stream size                              : 87.3 MiB (13%)
Alignment                                : Aligned on interleaves
Interleave, duration                     : 36 ms (0.86 video frame)
Interleave, preload duration             : 603 ms		
ABCD Any Body Can Dance 2013 Hindi Movies DvDRip New Source Sample Included Best Quality ~ rDX/ABCD Any Body Can Dance 2013 Hindi Movies DvDRip New Source Best Quality ~ rDX.avi 726.329 MB
ABCD Any Body Can Dance 2013 Hindi Movies DvDRip New Source Sample Included Best Quality ~ rDX/Sample ~ ABCD Any Body Can Dance 2013 Hindi Movies DvDRip New Source Best Quality ~ rDX.avi 12.742 MB
Gathering some info...

Register and log in Isohunt and see no captcha anymore!

4000 symbols left
Hash e96b71fbe6f2c6a8b96b216e402f1023c65553cb

Related torrents for "ABCD Any Body Can Dance 2013 Hindi Movies DvDRip New Source Sample Included Best Quality ~ rDX"

Torrent search:

dvdrip hindi 2013