imdb
rating

6.1
Immortals

Immortals (2011)

Action, Drama, Fantasy

Full description
quality   telesync dvdrip x264 dvd cam

Immortals TS V2 XviD-THS

Size 812.721 MB   0 seeders     Added 2011-11-17 08:27:09

Stream torrent
Starting‥ You need BitLord! Get it from BitLord.com
To download or stream you need BitLord. Visit them at BitLord.com
[center]
[img]image[/img]


image

PRESENTS

Immortals TS V2 XviD-THS

http://www.imdb.com/title/tt1253864/

release date: 11.11.11



CODEC NFO



Complete name: Immortals TS V2 XviD-THS.avi

Format: AVI

Format/Info: Audio Video Interleave

Duration: 1h 41mn

Overall bit rate: 1 293 Kbps

Writing library: TMPGEnc 4.0 XPress Version. 4.7.6.304



Video

ID: 0

Format: MPEG-4 Visual

Format profile: Advanced Simple@L5

Format settings, BVOP: 1

Format settings, QPel: No

Format settings, GMC: No warppoints

Format settings, Matrix: Default (MPEG)

Muxing mode: Packed bitstream

Codec ID: XVID

Codec ID/Hint: XviD

Duration: 1h 41mn

Bit rate: 1 156 Kbps

Width: 720 pixels

Height: 372 pixels

Display aspect ratio: 1.935

Frame rate: 29.970 fps

Color space: YUV

Chroma subsampling: 4:2:0

Bit depth: 8 bits

Scan type: Progressive

Compression mode: Lossy

Bits/(Pixel*Frame): 0.144

Stream size: 843 MiB (89%)

Writing library: XviD 64



Audio

ID: 1

Format: MPEG Audio

Format version: Version 1

Format profile: Layer 3

Mode: Joint stereo

Codec ID: 55

Codec ID/Hint: MP3

Duration: 1h 41mn

Bit rate mode: Constant

Bit rate: 128 Kbps

Channel(s): 2 channels

Sampling rate: 48.0 KHz

Compression mode: Lossy

Stream size: 93.3 MiB (10%)

Alignment: Aligned on interleaves

Interleave, duration: 250 ms (7.49 video frames)

Interleave, preload duration: 432 ms

RIPPER NOTE'S: Ok here our cam russian video and enlish cam audio

not bad for first release could be a lot better if it wasnt in 3D did best i could

with lil cleanup didnt take long to sync audio (thx Mate 4 audio)



image
        
Immortals TS V2 XviD-THS.avi 807.342 MB
sample.avi 4.64 MB
vlcsnap 0100003.jpg 169.317 KB
Gathering some info...

Register and log in Isohunt and see no captcha anymore!

4000 symbols left
Hash CDC9D98082AF4B05F8F085A28D6DF690D5040DCC

Related torrents for "Immortals TS V2 XviD-THS"

Torrent search:

telesync