imdb
rating

4.9
The Twilight Saga: Breaking Dawn - Part 1

The Twilight Saga: Breaking Dawn - Part 1 (2011)

Adventure, Fantasy, Romance

Full description

The Twilight Saga Breaking Dawn - Part 1 2011 Cam x264 Feel-Free

Size 945.943 MB   0 seeders     Added 2011-11-18 23:06:37

Stream torrent
Starting‥ You need BitLord! Get it from BitLord.com
To download or stream you need BitLord. Visit them at BitLord.com
Full Credits To Feel Free :)

 Genre:Adventure | Drama | Fantasy
 Language:English
 IMDb: http://www.imdb.com/title/tt1324999/
 Source:CAMRIP Italian/Audio:ILLUMINATI Thanks!

 Format : MPEG-4
 Format profile : Base Media
 Codec ID : isom
 Duration : 1h 39mn
 Overall bit rate : 1 755 Kbps

 Video
 ID : 1
 Format : AVC
 Format/Info : Advanced Video Codec
 Format profile : High@L5.1
 Format settings, CABAC : Yes
 Format settings, ReFrames : 3 frames
 Codec ID : avc1
 Codec ID/Info : Advanced Video Coding
 Duration : 1h 39mn
 Bit rate mode : Variable
 Bit rate : 1 500 Kbps
 Maximum bit rate : 5 403 Kbps
 Width : 688 pixels
 Height : 288 pixels
 Display aspect ratio : 2.35:1
 Frame rate mode : Constant
 Frame rate : 25.000 fps
 Color space : YUV
 Chroma subsampling : 4:2:0
 Bit depth : 8 bits
 Scan type : Progressive
 Bits/(Pixel*Frame) : 0.303
 Stream size : 1.04 GiB (85%)
 Writing library : x264

 Audio
 ID : 2
 Format : AAC
 Format/Info : Advanced Audio Codec
 Format version : Version 4
 Format profile : LC
 Format settings, SBR : No
 Codec ID : 40
 Duration : 1h 39mn
 Bit rate mode : Variable
 Bit rate : 258 Kbps
 Maximum bit rate : 275 Kbps
 Channel(s) : 2 channels
 Channel positions : Front: L R
 Sampling rate : 44.1 KHz
 Stream size : 184 MiB (15%)


 Plot:
 The Quileute and the Volturi close in on expecting parents Edward and Bella, whose unborn child poses different threats to the wolf pack and vampire coven.

Greets:

INK,CRYS,IMAGINE,LKRG,FXG,3Li,FLAWL3SS,TA,iLLUSiON,ViSiON,DTRG
SAFCuk009,LU,TheFalcon007,MYSTiC,PrisM,Noir,WBZ,LAP,Rx,Kingdom,SAFCuk009+Fabreezy,
HDLiTE,TWiZTED,ExtraTorrentRG.ELEKTRI4KA,MAGNAT,CM8
And to all the other p2p grps past and present


Screenshots:

image


Full Credits To Feel Free :)

The Twilight Saga Breaking Dawn - Part 1 2011 Cam x264 Feel-Free.avi 945.043 MB
vlcsnap 000002.jpg 217.752 KB
vlcsnap 000006.jpg 175.083 KB
Gathering some info...

Register and log in Isohunt and see no captcha anymore!

4000 symbols left
Hash 7ED5D7AD18E8FC6AAC4ACCA05AF31FBA4038D68B

Related torrents for "The Twilight Saga Breaking Dawn - Part 1 2011 Cam x264 Feel-Free"

Torrent search:

cam x264 2011