imdb
rating

4.0
Beauty and the Least

Beauty and the Least (2012)

Drama, Romance, Foreign

Full description
quality   dvdrip telesync h264 bd x264 hdtv hd

Beauty and the Beast 3D 2012

Size 851.419 MB   0 seeders     Added 2012-01-07 20:43:39

Stream torrent
Starting‥ You need BitLord! Get it from BitLord.com
To download or stream you need BitLord. Visit them at BitLord.com
Beauty and the Beast 3D 2012

Language : English

Format : AVI

Format/Info : Audio Video Interleave

Format profile : OpenDML

Duration : 1h 38mn

Overall bit rate : 1 882 Kbps

http://www.imdb.com/title/tt0101414/

Video

ID : 0

Format : MPEG-4 Visual

Format profile : Simple@L3

Format settings, BVOP : No

Format settings, QPel : No

Format settings, GMC : No warppoints

Format settings, Matrix : Default (H.263)

Codec ID : XVID

Codec ID/Hint : XviD

Duration : 1h 38mn

Bit rate : 475 Kbps

Width : 720 pixels

Height : 480 pixels

Display aspect ratio : 3:2

Frame rate : 29.970 fps

Original frame rate : 29.000 fps

Standard : NTSC

Color space : YUV

Chroma subsampling : 4:2:0

Bit depth : 8 bits

Scan type : Progressive

Compression mode : Lossy

Bits/(Pixel*Frame) : 0.046

Stream size : 335 MiB (25%)

Writing library : XviD 1.2.1 (UTC 2008-12-04)



Audio

ID : 1

Format : MPEG Audio

Format version : Version 1

Format profile : Layer 3

Mode : Joint stereo

Mode extension : MS Stereo

Codec ID : 55

Codec ID/Hint : MP3

Duration : 1h 38mn

Bit rate mode : Constant

Bit rate : 128 Kbps

Channel(s) : 2 channels

Sampling rate : 44.1 KHz

Compression mode : Lossy

Stream size : 19.7 MiB (1%)

Alignment : Aligned on interleaves

Interleave, duration : 32 ms (0.95 video frame)

Writing library : LAME3.98.2



Release notes...



Another quality release from IFLIX

More to come very soon!
Beauty and the Beast 3D 2012.avi 851.202 MB
Subs ENG.srt 82.896 KB
Subs Norwegian.srt 66.476 KB
Gathering some info...

Register and log in Isohunt and see no captcha anymore!

4000 symbols left
Hash 7F2FE9AE5E2C177A9CC29C23DDD106B435A2208F

Related torrents for "Beauty and the Beast 3D 2012"

Torrent search:

2012