imdb
rating

6.4
Underworld: Awakening

Underworld: Awakening (2012)

Action, Fantasy, Horror

Full description
quality   dvdrip telesync bd screener

Underworld.Awakening.2012.RUSSIAN Sub.REPACK.MD.CAM.XviD-GENER8XiON

Size 872.447 MB   0 seeders     Added 2012-01-12 23:06:43

Stream torrent
Starting‥ You need BitLord! Get it from 1BitLord.com
To download or stream you need BitLord. Visit them at BitLord.com
Underworld.Awakening.2012.RUSSIAN Sub.REPACK.MD.CAM.XviD-GENER8XiON

Action | Fantasy | Horror Film

Story : When human forces discover the existence of the Vampire and Lycan clans, a war to eradicate both species commences. The vampire warrioress Selene leads the battle against humankind.

Movie makers: Directors:
Måns Mårlind, Björn Stein
Writers:
Len Wiseman (screenplay), John Hlavin (screenplay), and 6 more credits »
Stars:
Kate Beckinsale, Michael Ealy and India Eisley

Movie trailer: http://www.imdb.com/video/imdb/vi1011654169/

Format: AVI

Format/Info: Audio Video Interleave

Duration: 1h 41mn

Overall bit rate: 1 293 Kbps

Writing library: TMPGEnc 4.0 XPress Version. 4.7.6.304



Video

ID: 0

Format: MPEG-4 Visual

Format profile: Advanced Simple@L5

Format settings, BVOP: 1

Format settings, QPel: No

Format settings, GMC: No warppoints

Format settings, Matrix: Default (MPEG)

Muxing mode: Packed bitstream

Codec ID: XVID

Codec ID/Hint: XviD

Duration: 1h 41mn

Bit rate: 1 156 Kbps

Width: 720 pixels

Height: 372 pixels

Display aspect ratio: 1.935

Frame rate: 29.970 fps

Color space: YUV

Chroma subsampling: 4:2:0

Bit depth: 8 bits

Scan type: Progressive

Compression mode: Lossy

Bits/(Pixel*Frame): 0.144

Stream size: 843 MiB (89%)

Writing library: XviD 64



Audio

ID: 1

Format: MPEG Audio

Format version: Version 1

Format profile: Layer 3

Mode: Joint stereo

Codec ID: 55

Codec ID/Hint: MP3

Duration: 1h 41mn

Bit rate mode: Constant

Bit rate: 128 Kbps

Channel(s): 2 channels

Sampling rate: 48.0 KHz

Compression mode: Lossy

Stream size: 93.3 MiB (10%)

Alignment: Aligned on interleaves

Interleave, duration: 250 ms (7.49 video frames)

Interleave, preload duration: 432 ms

RIPPER NOTE'S: Ok here our russian sub video and enlish  audio

not bad for first release could be a lot better if it wasnt in 3D did best i could

with lil cleanup didnt take long to sync audio (thx Mate 4 audio) 
Underworld.Awakening.2012.RUSSIAN Sub.REPACK.MD.CAM.XviD-GENER8XiON.avi 830.802 MB
Sub FILE compress.sub 15.409 MB
Quick-RUSSIAN.sub 8.745 MB
Gathering some info...

Register and log in Isohunt and see no captcha anymore!

4000 symbols left
Hash 6A6F8D7526FDC8CE89407FE44C3190D31D74CC8C

Related torrents for "Underworld.Awakening.2012.RUSSIAN Sub.REPACK.MD.CAM.XviD-GENER8XiON"

Torrent search:

russian cam 2012