imdb
rating

7.1
We Bought a Zoo

We Bought a Zoo (2011)

Comedy, Drama, Family

Full description

We.Bought.a.Zoo.2011.ENGLISH.TS.XviD-NOVA

Size 853.067 MB   0 seeders     Added 2012-01-12 23:10:51

Stream torrent
Starting‥ You need BitLord! Get it from 1BitLord.com
To download or stream you need BitLord. Visit them at BitLord.com
We.Bought.a.Zoo.2011.ENGLISH.TS.XviD-NOVA

http://www.imdb.com/title/tt1389137/

Comedy | Drama | Family  Film

Story : Set in Southern California, a father moves his young family to the countryside to renovate and re-open a struggling zoo. 


:Movie makers: 

Director:
Cameron Crowe
Writers:
Aline Brosh McKenna (screenplay), Cameron Crowe (screenplay), and 1 more credit »
Stars:
Matt Damon, Scarlett Johansson and Thomas Haden Church 

Movie trailer: http://www.imdb.com/video/imdb/vi592747545/

Format: AVI

Format/Info: Audio Video Interleave

Duration: 1h 55mn

Overall bit rate: 1 293 Kbps

Writing library: TMPGEnc 4.0 XPress Version. 4.7.6.304



Video

ID: 0

Format: MPEG-4 Visual

Format profile: Advanced Simple@L5

Format settings, BVOP: 1

Format settings, QPel: No

Format settings, GMC: No warppoints

Format settings, Matrix: Default (MPEG)

Muxing mode: Packed bitstream

Codec ID: XVID

Codec ID/Hint: XviD

Duration: 1h 55mn

Bit rate: 1 156 Kbps

Width: 720 pixels

Height: 372 pixels

Display aspect ratio: 1.935

Frame rate: 29.970 fps

Color space: YUV

Chroma subsampling: 4:2:0

Bit depth: 8 bits

Scan type: Progressive

Compression mode: Lossy

Bits/(Pixel*Frame): 0.144

Stream size: 843 MiB (89%)

Writing library: XviD 64



Audio

ID: 1

Format: MPEG Audio

Format version: Version 1

Format profile: Layer 3

Mode: Joint stereo

Codec ID: 55

Codec ID/Hint: MP3

Duration: 1h 55mn

Bit rate mode: Constant

Bit rate: 128 Kbps

Channel(s): 2 channels

Sampling rate: 48.0 KHz

Compression mode: Lossy

Stream size: 93.3 MiB (10%)

Alignment: Aligned on interleaves

Interleave, duration: 250 ms (7.49 video frames)

Interleave, preload duration: 432 ms

RIPPER NOTE'S: Ok here our russian sub video and enlish  audio

not bad for first release could be a lot better if it wasnt in 3D did best i could

with lil cleanup didnt take long to sync audio (thx Mate 4 audio) 
We.Bought.a.Zoo.2011.ENGLISH.TS.XviD-NOVA.avi 811.422 MB
Sub FILE compress.sub 15.409 MB
Quick-RUSSIAN.sub 8.745 MB
Gathering some info...

Register and log in Isohunt and see no captcha anymore!

4000 symbols left
Hash 841D99535C621BD586477C71D87C73FBE48F8F4A

Related torrents for "We.Bought.a.Zoo.2011.ENGLISH.TS.XviD-NOVA"

Torrent search:

english telesync 2011