imdb
rating

6.1
Immortals

Immortals (2011)

Action, Drama, Fantasy

Full description
quality   telesync dvdrip x264 dvd cam

Immortals (2011) DVDRip XviD-MAX

Size 1.22 GB   0 seeders     Added 2012-01-13 21:22:08

Stream torrent
Starting‥ You need BitLord! Get it from BitLord.com
To download or stream you need BitLord. Visit them at BitLord.com
Immortals (2011) DVDRip XviD-MAXSPEED
Format                           : AVI
Format/Info                      : Audio Video Interleave
Format profile                   : OpenDML
Duration                         : 1h 48mn
Overall bit rate                 : 1 390 Kbps
Writing application              : VirtualDubMod 1.5.10.2 (build 2542/release)
Writing library                  : VirtualDubMod build 2542/release
Original source form             : MAX TORRENTZ
Copyright                        : SIGISMUNT

Video
ID                               : 0
Format                           : MPEG-4 Visual
Format profile                   : AdvancedSimple@L5
Format settings, BVOP            : Yes
Format settings, QPel            : No
Format settings, GMC             : No warppoints
Format settings, Matrix          : Default (MPEG)
Codec ID                         : XVID
Codec ID/Hint                    : XviD
Duration                         : 1h 48mn
Bit rate                         : 1 189 Kbps
Width                            : 640 pixels
Height                           : 272 pixels
Display aspect ratio             : 2.35:1
Frame rate                       : 23.976 fps
Resolution                       : 24 bits
Colorimetry                      : 4:2:0
Scan type                        : Progressive
Bits/(Pixel*Frame)               : 0.285
Stream size                      : 1 008 MiB (86%)
Writing library                  : XviD 1.2.1 (UTC 2008-12-04)

Audio
ID                               : 1
Format                           : MPEG Audio
Format version                   : Version 1
Format profile                   : Layer 3
Codec ID                         : 61
Codec ID/Hint                    : MP3
Duration                         : 1h 48mn
Bit rate mode                    : Constant
Bit rate                         : 192 Kbps
Channel(s)                       : 2 channels
Sampling rate                    : 48.0 KHz
Resolution                       : 16 bits
Stream size                      : 139 MiB (15%)
Alignment                        : Aligned on interleaves
Interleave, duration             : 24 ms (0.58 video frame)
Interleave, preload duration     : 384 ms
Writing library                  : LAME3.96.1

Source: DVD (perfect a/v/sync quality,sample included)
This torrent is not seedbox supported,please seed it to the MAX
 
NOTE

BE AWARE OF BOGUS SITES , FAKE FILES  AND 
STUPID SPAMMERS DOWNLOAD ALWAYS YOUR MAX DATA FROM OUR SITE 
http://www.torentz.3xforum.ro/topic/4/MAX_TORRENTZ/

Recommended player for all our movies
http://www.videolan.org/vlc/

REMEMBER: GOD DEMANDS LOVE,SEEDS,PEERS AND A FAIR TORRENT RATIO

Copyright © WWW.TORENTZ.3XFORUM.RO
Immortals (2011) DVDRip XviD-MAXSPEED www.torentz.3xforum.ro.avi 1.204 GB
Sub FILE compress.sub 15.409 MB
RUS.srt 82.896 KB
Gathering some info...

Register and log in Isohunt and see no captcha anymore!

4000 symbols left
Hash 57B0ADCF25AEB4C1E63613CFD95C894E9950B19B

Related torrents for "Immortals (2011) DVDRip XviD-MAX"

Torrent search:

dvdrip 2011