imdb
rating

6.4
Underworld: Awakening

Underworld: Awakening (2012)

Action, Fantasy, Horror

Full description
quality   dvdrip telesync bd screener

Underworld Awakening (2012) BRRip XviD-ExtraTorrentRG

Size 1.277 GB   0 seeders     Added 2012-01-20 12:24:29

Stream torrent
Starting‥ You need BitLord! Get it from BitLord.com
To download or stream you need BitLord. Visit them at BitLord.com
[/img]image[/img]
[code]
Underworld: Awakening 2012

Plot:
When human forces discover the existence of the Vampire and Lycan clans, a war to eradicate both species commences. The vampire warrioress Selene leads the battle against humankind. 

Sources:
LUMX1 FOR DVDR!!!

Notes:
VERY GOOD VIDEO AND AUDIO! ENJOY!!

Greetz:
Xtreme Encode|FYA|ILLUMANTI|CM8|RX|VISION|HDSCENE|NIGHTMAREZ|xTriLL|DTRG|CRYS|REMIXHD|BIDA|RX|REFILL| INSPiRAL|SIC
To all the people who have helped me :P you know who you are

Anything to offer email us @: 26k@hushmail.me

Video
ID                                       : 0
Format                                   : MPEG-4 Visual
Format profile                           : Advanced Simple@L5
Format settings, BVOP                    : 2
Format settings, QPel                    : No
Format settings, GMC                     : No warppoints
Format settings, Matrix                  : Default (H.263)
Muxing mode                              : Packed bitstream
Codec ID                                 : XVID
Codec ID/Hint                            : XviD
Duration                                 : 2h 2mn
Bit rate                                 : 953 Kbps
Width                                    : 720 pixels
Height                                   : 300 pixels
Display aspect ratio                     : 2.40:1
Frame rate                               : 25.000 fps
Color space                              : YUV
Chroma subsampling                       : 4:2:0
Bit depth                                : 8 bits
Scan type                                : Progressive
Compression mode                         : Lossy
Bits/(Pixel*Frame)                       : 0.176
Stream size                              : 832 MiB (71%)
Writing library                          : XviD 1.2.1 (UTC 2008-12-04)

Audio
ID                                       : 1
Format                                   : AC-3
Format/Info                              : Audio Coding 3
Mode extension                           : CM (complete main)
Codec ID                                 : 2000
Duration                                 : 2h 2mn
Bit rate mode                            : Constant
Bit rate                                 : 384 Kbps
Channel(s)                               : 6 channels
Channel positions                        : Front: L C R, Side: L R, LFE
Sampling rate                            : 48.0 KHz
Bit depth                                : 16 bits
Compression mode                         : Lossy
Stream size                              : 335 MiB (28%)
Alignment                                : Aligned on interleaves
Interleave, duration                     : 32 ms (0.80 video frame)
Interleave, preload duration             : 32 ms

[/code]
Screens:
[/img]image[/img]
[/img]image[/img]
[/img]image[/img]
[/img]image[/img]
[/img]image[/img]
[/img]image[/img]
#
Thank you smallz for banner!
Sample.avi 20.819 MB
Underworld Awakening (2012) BRRip XviD-ExtraTorrentRG Movie Cover.jpg 1.14 MB
Underworld Awakening (2012) BRRip XviD-ExtraTorrentRG.avi 1.254 GB
Gathering some info...

Register and log in Isohunt and see no captcha anymore!

4000 symbols left
Hash D7E7D435FBFFD7B319D406ED0F2CC33FE9B970A8

Related torrents for "Underworld Awakening (2012) BRRip XviD-ExtraTorrentRG"

Torrent search:

2012 bd