The Twilight Saga Breaking Dawn Part 1-2011 BDRip

Size 2.013 GB   0 seeders     Added 2012-01-29 16:49:28

To download or stream you need BitLord. Visit them at BitLord.com
Source: Bluray
Video: 720x304 @bitrate 1700 2pass
Audio: English DTS to AC3 5.1 @448
Sample: yes included
Subs: yes hardcoded for foreign parts only

Bonus:

Full Subs with foreign parts: yes included
Full Subs without foreign parts: yes included
Subs for foreign parts only: yes included

http://www.imdb.com/title/tt1324999/

General

Format: AVI
Format/Info: Audio Video Interleave
File size: 1.87 GiB
Duration: 1h 57mn
Overall bit rate: 2 281 Kbps
Writing application: Nandub v1.0rc2
Writing library: Nandub build 1853/release

Video
ID: 0
Format: MPEG-4 Visual
Format profile: Advanced Simple@L5
Format settings, BVOP: 1
Format settings, QPel: Yes
Format settings, GMC: No warppoints
Format settings, Matrix: Default (H.263)
Muxing mode: Packed bitstream
Codec ID: XVID
Codec ID/Hint: XviD
Duration: 1h 57mn
Bit rate: 1 824 Kbps
Width: 720 pixels
Height: 304 pixels
Display aspect ratio: 2.40:1
Frame rate: 23.976 fps
Color space: YUV
Chroma subsampling: 4:2:0
Bit depth: 8 bits
Scan type: Progressive
Compression mode: Lossy
Bits/(Pixel*Frame): 0.348
Stream size: 1.49 GiB (80%)
Writing library: XviD 1.2.1 (UTC 2008-12-04)

Audio
ID: 1
Format: AC-3
Format/Info: Audio Coding 3
Mode extension: CM (complete main)
Codec ID: 2000
Duration: 1h 57mn
Bit rate mode: Constant
Bit rate: 448 Kbps
Channel(s): 6 channels
Channel positions: Front: L C R, Side: L R, LFE
Sampling rate: 48.0 KHz
Bit depth: 16 bits
Compression mode: Lossy
Stream size: 375 MiB (20%)
Alignment: Split accross interleaves
Interleave, duration: 42 ms (1.00 video frame)
Interleave, preload duration: 500 ms

The Quileutes close in on expecting parents Edward and Bella,
whose unborn child poses a threat
to the Wolf Pack and the towns people of Forks

Taylor Lautner ... Jacob Black
Gil Birmingham ... Billy
Billy Burke ... Charlie Swan
Sarah Clarke ... Ren e
Ty Olsson ... Phil Dwyer
Kristen Stewart ... Bella Swan 
The Twilight Saga Breaking Dawn Part 1-2011 BDRip.rar 2.013 GB
Gathering some info...

Register and log in Isohunt and see no captcha anymore!

4000 symbols left
Hash 42DC14CF1107E9799D33430487987A06BE8394C9

Related torrents for "The Twilight Saga Breaking Dawn Part 1-2011 BDRip"

Torrent search:

2011