The Devils Double 2011-BRRiP

Size 1.407 GB   0 seeders     Added 2012-01-29 17:08:30

To download or stream you need BitLord. Visit them at BitLord.com
IMDB Link: http://www.imdb.com/title/tt1270262/

MediaInfo:
General

Format: AVI
Format/Info: Audio Video Interleave
File size: 1.30 GiB
Duration: 1h 48mn
Overall bit rate: 1 706 Kbps

Video
ID: 0
Format: MPEG-4 Visual
Format profile: Advanced Simple@L5
Format settings, BVOP: Yes
Format settings, QPel: No
Format settings, GMC: No warppoints
Format settings, Matrix: Default (H.263)
Muxing mode: Packed bitstream
Codec ID: XVID
Codec ID/Hint: XviD
Duration: 1h 48mn
Bit rate: 1 314 Kbps
Width: 720 pixels
Height: 304 pixels
Display aspect ratio: 2.35:1
Frame rate: 23.976 fps
Resolution: 8 bits
Colorimetry: 4:2:0
Scan type: Progressive
Bits/(Pixel*Frame): 0.250
Stream size: 1 024 MiB (77%)
Writing library: XviD 64

Audio
ID: 1
Format: AC-3
Format/Info: Audio Coding 3
Format_Settings_ModeExtension: CM (complete main)
Codec ID: 2000
Duration: 1h 48mn
Bit rate mode: Constant
Bit rate: 384 Kbps
Channel(s): 6 channels
Channel positions: Front: L C R, Side: L R, LFE
Sampling rate: 48.0 KHz
Stream size: 299 MiB (23%)
Alignment: Aligned on interleaves
Interleave, duration: 64 ms (1.53 video frames)
Interleave, preload duration: 192 ms
Title: 6ch English
The Devils Double 2011-BRRiP.rar 1.407 GB
Gathering some info...

Register and log in Isohunt and see no captcha anymore!

4000 symbols left
Hash 6F7AEFF714984656851C5CB5887A2F636859672D

Related torrents for "The Devils Double 2011-BRRiP"

Torrent search:

2011