Tinker Tailor Soldier Spy 2011-BRRiP

Size 1.519 GB   0 seeders     Added 2012-01-29 17:47:13

To download or stream you need BitLord. Visit them at BitLord.com
IMDB Link: http://www.imdb.com/title/tt1340800/

MediaInfo:
General

Format: AVI
Format/Info: Audio Video Interleave
File size: 1.40 GiB
Duration: 2h 7mn
Overall bit rate: 1 571 Kbps

Video
ID: 0
Format: MPEG-4 Visual
Format profile: Advanced Simple@L5
Format settings, BVOP: Yes
Format settings, QPel: No
Format settings, GMC: No warppoints
Format settings, Matrix: Default (H.263)
Muxing mode: Packed bitstream
Codec ID: XVID
Codec ID/Hint: XviD
Duration: 2h 7mn
Bit rate: 1 180 Kbps
Width: 720 pixels
Height: 304 pixels
Display aspect ratio: 2.35:1
Frame rate: 23.976 fps
Resolution: 8 bits
Colorimetry: 4:2:0
Scan type: Progressive
Bits/(Pixel*Frame): 0.225
Stream size: 1.05 GiB (75%)
Writing library: XviD 64

Audio
ID: 1
Format: AC-3
Format/Info: Audio Coding 3
Format_Settings_ModeExtension: CM (complete main)
Codec ID: 2000
Duration: 2h 7mn
Bit rate mode: Constant
Bit rate: 384 Kbps
Channel(s): 6 channels
Channel positions: Front: L C R, Side: L R, LFE
Sampling rate: 48.0 KHz
Stream size: 350 MiB (24%)
Alignment: Aligned on interleaves
Interleave, duration: 64 ms (1.53 video frames)
Interleave, preload duration: 192 ms
Title: 6ch English
Tinker Tailor Soldier Spy 2011-BRRiP.rar 1.519 GB
Gathering some info...

Register and log in Isohunt and see no captcha anymore!

4000 symbols left
Hash 154CBC4DC6D84950FE25EDACBAC95C0CB1EA1960

Related torrents for "Tinker Tailor Soldier Spy 2011-BRRiP"

Torrent search:

2011