The Woman in Black (2012)READNFO TS XviD-26K

Size 1.258 GB   0 seeders     Added 2012-02-01 15:39:55

To download or stream you need BitLord. Visit them at BitLord.com
The Woman in Black (2012) TS READNFO XviD-26K

Imdb:
http://www.imdb.com/title/tt1596365/

Plot:
A young lawyer travels to a remote village where he discovers the vengeful ghost of a scorned woman is terrorizing the locals.

Director:
James Watkins
Writers:
Susan Hill (novel), Jane Goldman (screenplay)
Stars:
Daniel Radcliffe, Janet McTeer and Ciarán Hinds 

Notes:
Cropped and encoded the video



Format                                   : AVI
Format/Info                              : Audio Video Interleave
File size                                : 1.17 GiB
Duration                                 : 95 min
Overall bit rate                         : 1 268 Kbps

Video
ID                                       : 0
Format                                   : MPEG-4 Visual
Format profile                           : Advanced Simple@L5
Format settings, BVOP                    : 2
Format settings, QPel                    : No
Format settings, GMC                     : No warppoints
Format settings, Matrix                  : Default (H.263)
Codec ID                                 : XVID
Codec ID/Hint                            : XviD
Duration                                 : 95 min
Bit rate                                 : 1 000 Kbps
Width                                    : 656 pixels
Height                                   : 238 pixels
Display aspect ratio                     : 2.756
Frame rate                               : 23.000 fps
Color space                              : YUV
Chroma subsampling                       : 4:2:0
Bit depth                                : 8 bits
Scan type                                : Progressive
Compression mode                         : Lossy
Bits/(Pixel*Frame)                       : 0.278
Stream size                              : 889 MiB (79%)
Writing library                          : XviD 63

Audio
ID                                       : 1
Format                                   : MPEG Audio
Format version                           : Version 1
Format profile                           : Layer 3
Codec ID                                 : 55
Codec ID/Hint                            : MP3
Duration                                 : 95 min
Bit rate mode                            : Constant
Bit rate                                 : 256 Kbps
Channel(s)                               : 2 channels
Sampling rate                            : 44.1 KHz
Compression mode                         : Lossy
Stream size                              : 228 MiB (20%)
Alignment                                : Split accross interleaves
Interleave, duration                     : 26 ms (0.60 video frame)
Writing library                          : LAME3.98

Respect my work and you will be respected.
The Woman in Black (2012)READNFO TS XviD-26K.rar 1.258 GB
Gathering some info...

Register and log in Isohunt and see no captcha anymore!

4000 symbols left
Hash 60F55D359283B084723133983CD4BD638BD6E0E5

Related torrents for "The Woman in Black (2012)READNFO TS XviD-26K"

Torrent search:

2012