The Innkeepers (2011) CAM XviD

Size 1.258 GB   0 seeders     Added 2012-02-01 21:17:12

To download or stream you need BitLord. Visit them at BitLord.com
The Innkeepers (2011) CAM XviD

Imdb:
http://www.imdb.com/title/tt1594562/

Plot:
During the final days at the Yankee Pedlar Inn, two employees determined to reveal the hotel's haunted past begin to experience disturbing events as old guests check in for a stay. 

Director:
Ti West
Writer:
Ti West
Stars:
Sara Paxton, Pat Healy and Kelly McGillis  

Notes:
Cropped and encoded the video



Format                                   : AVI
Format/Info                              : Audio Video Interleave
File size                                : 1.17 GiB
Duration                                 : 100 min
Overall bit rate                         : 1 268 Kbps

Video
ID                                       : 0
Format                                   : MPEG-4 Visual
Format profile                           : Advanced Simple@L5
Format settings, BVOP                    : 2
Format settings, QPel                    : No
Format settings, GMC                     : No warppoints
Format settings, Matrix                  : Default (H.263)
Codec ID                                 : XVID
Codec ID/Hint                            : XviD
Duration                                 : 100 min
Bit rate                                 : 1 000 Kbps
Width                                    : 656 pixels
Height                                   : 238 pixels
Display aspect ratio                     : 2.756
Frame rate                               : 23.000 fps
Color space                              : YUV
Chroma subsampling                       : 4:2:0
Bit depth                                : 8 bits
Scan type                                : Progressive
Compression mode                         : Lossy
Bits/(Pixel*Frame)                       : 0.278
Stream size                              : 889 MiB (79%)
Writing library                          : XviD 63

Audio
ID                                       : 1
Format                                   : MPEG Audio
Format version                           : Version 1
Format profile                           : Layer 3
Codec ID                                 : 55
Codec ID/Hint                            : MP3
Duration                                 : 100 min
Bit rate mode                            : Constant
Bit rate                                 : 256 Kbps
Channel(s)                               : 2 channels
Sampling rate                            : 44.1 KHz
Compression mode                         : Lossy
Stream size                              : 228 MiB (20%)
Alignment                                : Split accross interleaves
Interleave, duration                     : 26 ms (0.60 video frame)
Writing library                          : LAME3.98
The Innkeepers (2011) CAM XviD.rar 1.258 GB
Gathering some info...

Register and log in Isohunt and see no captcha anymore!

4000 symbols left
Hash C6DA7BCC9C6C7605BDF732805D69E3EE535D0F7B

Related torrents for "The Innkeepers (2011) CAM XviD"

Torrent search:

2011