imdb
rating

6.9
The Holiday

The Holiday (2006)

Comedy, Romance

Full description
quality   dvdr telesync cam dvdrip x264 hd bd

The Holiday 2006 BRRip 720p x264 AAC - PRiSTiNE [P2PDL]

Size 905.697 MB   2 seeders     Added 2013-04-25 22:32:36

Stream torrent
Starting‥ You need BitLord! Get it from 1BitLord.com
To download or stream you need BitLord. Visit them at BitLord.com
_________________________  Visit us at _________________________
  
http://p2pdl.com  ____________________________  http://p2pdl.com


The Holiday 2006 BRRip 720p x264 AAC - PRiSTiNE [P2PDL]

Genre: Comedy | Romance
Plot: Two women troubled with guy-problems swap homes 
in each other's countries, where they each meet 
a local guy and fall in love.
Director: Nancy Meyers
Stars:  Cameron Diaz, Kate Winslet, Jude Law
Rated: Rated PG-13 for sexual content and some strong language

Info: 
http://www.imdb.com/title/tt1462900/

General
Complete name                  : The Holiday 2006 BRRip 720p x264 AAC - PRiSTiNE.mp4
Format                         : MPEG-4
File size                      : 852 MiB
Duration                       : 2h 15mn
Overall bit rate mode          : Variable
Overall bit rate               : 878 Kbps

Video
Format                         : AVC
Format/Info                    : Advanced Video Codec
Format profile                 : High 10@L4.1
Bit rate                       : 795 Kbps
Width                          : 1 280 pixels
Height                         : 694 pixels
Display aspect ratio           : 1.85:1
Frame rate mode                : Constant
Frame rate                     : 23.976 fps
Bit depth                      : 10 bits
Stream size                    : 771 MiB (91%)
Writing library                : x264 core 130 r2273 b3065e6

Audio
Format                         : AAC
Format/Info                    : Advanced Audio Codec
Bit rate                       : 79.9 Kbps
Channel(s)                     : 2 channels
Channel positions              : Front: L R
Sampling rate                  : 48.0 KHz / 24.0 KHz
Stream size                    : 77.6 MiB (9%)
Language                       : English

Subtitle                       : Yes (English)
Source                         : 720p.BluRay.x264-EbP (Thanks)

Screenshots:
 
image 
image 
image 
image 
image 
image 
image 
image 
image

----------------------------------------------------------------------------------------------------


Encoded using revolutionary 10bit encoding, which enables us to provide you more crispier 
and sharper images at small sizes, just make sure you follow our instructions without a fault.
Recommend to you to use latest version of VLC player. Install K-Lite Codec Pack or shark007 codecs
in case of any kind of problem in playback (For non-VLC Media Player users). Alternatively, install
Core AVC codecs, the fastest decoder that there is coupled with Community Center Codec Pack and play
on Windows Media Player Classic. Check sample to be sure.
Enjoy!

Encoder Notes:Looking For Early Access To Anything You Can Provide DVDScr, R5, DVDR, BluRay, Direct
Audio, Music Releases and Seedboxes. We require dedicated servers, so as to do more 
and fast releases of movies.
If You Got anything to offer please contact us at "prg@hush.com".

Face book Fan Page:   
http://www.fb.me/p2pdl		
The Holiday 2006 BRRip 720p x264 AAC - PRiSTiNE [P2PDL]/The Holiday 2006 BRRip 720p x264 AAC - PRiSTiNE/The Holiday 2006 BRRip 720p x264 AAC - PRiSTiNE.mp4 893.685 MB
The Holiday 2006 BRRip 720p x264 AAC - PRiSTiNE [P2PDL]/Sample.mp4 11.875 MB
The Holiday 2006 BRRip 720p x264 AAC - PRiSTiNE [P2PDL]/The Holiday 2006 BRRip 720p x264 AAC - PRiSTiNE/The Holiday 2006 BRRip 720p x264 AAC - PRiSTiNE.srt 130.15 KB
Gathering some info...

Register and log in Isohunt and see no captcha anymore!

4000 symbols left
Hash 3a6022c1ded3ba7a416fbc9b68fb4b3c6968e123

Related torrents for "The Holiday 2006 BRRip 720p x264 AAC - PRiSTiNE [P2PDL]"

Torrent search:

2006 x264 hd bd