imdb
rating

5.9
Battleship

Battleship (2012)

Action, Adventure, Science Fiction, Thriller

Full description

Battleship 2012 720P BRRIP AUDIO-HINDI DD-5.1 (ORIGINAL BY GPSOFT)

Size 859.589 MB   0 seeders     Added 2012-03-26 16:35:55

Stream torrent
Starting‥ You need BitLord! Get it from BitLord.com
To download or stream you need BitLord. Visit them at BitLord.com
Battleship (2012)
Action | Sci-Fi | Thriller  -  
  

A fleet of ships is forced to do battle with an armada of unknown origins in order to discover and thwart their destructive goals.

Director:
Peter Berg
Writers:
Erich Hoeber, Jon Hoeber
Stars:
Alexander Skarsgård, Brooklyn Decker and Liam Neeson

VIDEO :- HD-1080p FROM MY OWN BLU-RAY
AUDIO :- HINDI 5.1CH ORIGINAL FROM MY SONY-DVD

General
************
Complete name : Battleship 2012 720P BRRIP AUD-HINDI DD-5.1 (ORIGINAL BY GPSOFT)
Format : Matroska
Format version : Version 2
Duration : 1h 59mn
Overall bit rate : 2 632 Kbps
Movie name : Battleship 2012 720P BRRIP AUD-HINDI DD-5.1 (ORIGINAL BY GPSOFT)
Writing application : mkvmerge v5.1.0 ('And so it goes') built on March 26 2012 23:58:28
Writing library : libebml v1.2.3 + libmatroska v1.3.0

Video
********
ID : 1
Format : AVC
Format/Info : Advanced Video Codec
Format profile : Main@L3.1
Format settings, CABAC : Yes
Format settings, ReFrames : 1 frame
Muxing mode : Header stripping
Codec ID : V_MPEG4/ISO/AVC
Duration : (1h 59mn 23se)
Bit rate : 2 119 Kbps
Width : 1 280 pixels
Height : 688 pixels
Display aspect ratio : 1.860
Frame rate : 25.000 fps
Original frame rate : 23.976 fps
Color space : YUV
Chroma subsampling : 4:2:0
Bit depth : 8 bits
Scan type : Progressive
Bits/(Pixel*Frame) : 0.096
Stream size : 1.78 GiB (81%)
Title : Battleship 2012 720P BRRIP AUD-HINDI DD-5.1 (ORIGINAL BY GPSOFT)

Audio
********
ID : 2
Format : AC-3
Format/Info : Audio Coding 3
Mode extension : CM (complete main)
Muxing mode : Header stripping
Codec ID : A_AC3
Duration : (1h 59mn 23se)
Bit rate mode : Constant
Bit rate : 448 Kbps
Channel(s) : 6 channels
Channel positions : Front: L C R, Side: L R, LFE
Sampling rate : 48.0 KHz
Bit depth : 16 bits
Compression mode : Lossy
Delay relative to video : 2s 500ms
Stream size : 383 MiB (17%)
Title : HINDI DD-5.1 (ORIGINAL BY GPSOFT)
Language : Hindi
Default : Yes
Forced : No

image
XA - 2011-01-12 - Francesca, Caprice - Double the Pleasure (Video) 1920x1080/_kittysimages.net.URL 211 B
XA - 2011-01-12 - Francesca, Caprice - Double the Pleasure (Video) 1920x1080/_readme.txt 5.292 KB
XA - 2011-01-12 - Francesca, Caprice - Double the Pleasure (Video) 1920x1080/caprice_francesca_double_the_pleasure_1080.mov 429.797 MB
Gathering some info...

Register and log in Isohunt and see no captcha anymore!

4000 symbols left
Hash 2E7A9D84BF8BB9692F251CD52D69C1F486FFB563

Related torrents for "Battleship 2012 720P BRRIP AUDIO-HINDI DD-5.1 (ORIGINAL BY GPSOFT)"

Torrent search:

hd hindi 2012 bd