imdb
rating

6.6
John Carter

John Carter (2012)

Action, Adventure, Fantasy, Science Fiction

Full description
quality   dvdrip telesync dvd bd fullhd

John Carter 2012 720P BRRIP AUDIO-HINDI DD-5.1 (ORIGINAL BY GPSOFT)

Size 859.589 MB   0 seeders     Added 2012-03-26 17:11:00

Stream torrent
Starting‥ You need BitLord! Get it from BitLord.com
To download or stream you need BitLord. Visit them at BitLord.com
John Carter (2012)
PG_13 132 min  -  Action | Adventure | Fantasy  - 
7.1
Your rating:
    -/10  
Ratings: 7.1/10 from 17,058 users   Metascore: 53/100 
Reviews: 275 user | 262 critic | 39 from Metacritic.com

Transplanted to Mars, a Civil War vet discovers a lush planet inhabited by 12-foot tall barbarians. Finding himself a prisoner of these creatures, he escapes, only to encounter a princess who is in desperate need of a savior.

Director:
Andrew Stanton
Writers:
Andrew Stanton (screenplay), Mark Andrews (screenplay), and 2 more credits »
Stars:
Taylor Kitsch, Lynn Collins and Willem Dafoe 

VIDEO :- HD-1080p FROM MY OWN BLU-RAY
AUDIO :- HINDI 5.1CH ORIGINAL FROM MY SONY-DVD

General
************
Complete name : John Carter 2012 720P BRRIP AUD-HINDI DD-5.1 (ORIGINAL BY GPSOFT)
Format : Matroska
Format version : Version 2
Duration : 1h 59mn
Overall bit rate : 2 632 Kbps
Movie name : John Carter 2012 720P BRRIP AUD-HINDI DD-5.1 (ORIGINAL BY GPSOFT)
Writing application : mkvmerge v5.1.0 ('And so it goes') built on March 26 2012 23:58:28
Writing library : libebml v1.2.3 + libmatroska v1.3.0

Video
********
ID : 1
Format : AVC
Format/Info : Advanced Video Codec
Format profile : Main@L3.1
Format settings, CABAC : Yes
Format settings, ReFrames : 1 frame
Muxing mode : Header stripping
Codec ID : V_MPEG4/ISO/AVC
Duration : (1h 59mn 23se)
Bit rate : 2 119 Kbps
Width : 1 280 pixels
Height : 688 pixels
Display aspect ratio : 1.860
Frame rate : 25.000 fps
Original frame rate : 23.976 fps
Color space : YUV
Chroma subsampling : 4:2:0
Bit depth : 8 bits
Scan type : Progressive
Bits/(Pixel*Frame) : 0.096
Stream size : 1.78 GiB (81%)
Title : John Carter 2012 720P BRRIP AUD-HINDI DD-5.1 (ORIGINAL BY GPSOFT)

Audio
********
ID : 2
Format : AC-3
Format/Info : Audio Coding 3
Mode extension : CM (complete main)
Muxing mode : Header stripping
Codec ID : A_AC3
Duration : (1h 59mn 23se)
Bit rate mode : Constant
Bit rate : 448 Kbps
Channel(s) : 6 channels
Channel positions : Front: L C R, Side: L R, LFE
Sampling rate : 48.0 KHz
Bit depth : 16 bits
Compression mode : Lossy
Delay relative to video : 2s 500ms
Stream size : 383 MiB (17%)
Title : HINDI DD-5.1 (ORIGINAL BY GPSOFT)
Language : Hindi
Default : Yes
Forced : No

image
Ass.Fucked.Sluts.DiSC1.XXX.DVDRip.XviD-Jiggly/front.jpg 110.529 KB
Ass.Fucked.Sluts.DiSC1.XXX.DVDRip.XviD-Jiggly/jiggly-afslutsd1-cd1.avi 731.324 MB
Ass.Fucked.Sluts.DiSC1.XXX.DVDRip.XviD-Jiggly/jiggly-afslutsd1-cd2.avi 729.387 MB
Gathering some info...

Register and log in Isohunt and see no captcha anymore!

4000 symbols left
Hash 9F5A9725B3B7DFC4808BD0ECD14B69804A322E64

Related torrents for "John Carter 2012 720P BRRIP AUDIO-HINDI DD-5.1 (ORIGINAL BY GPSOFT)"

Torrent search:

hd hindi 2012 bd