imdb
rating

6.4
The Raven

The Raven (2012)

Thriller

Full description
quality   x264 hd bd dvdr dvdrip cam

The Raven 2012 720P BRRIP AUDIO-HINDI DD-5.1 (ORIGINAL BY GPSOFT)

Size 859.589 MB   0 seeders     Added 2012-03-27 12:03:06

Stream torrent
Starting‥ You need BitLord! Get it from 1BitLord.com
To download or stream you need BitLord. Visit them at BitLord.com
The Raven 	
Top 500
The Raven (2012)
R 111 min  -  Thriller 
6.9
Your rating:
    -/10  
Ratings: 6.9/10 from 754 users   Metascore: 42/100 
Reviews: 8 user | 17 critic | 4 from Metacritic.com

When a madman begins committing horrific murders inspired by Edgar Allan Poe's works, a young Baltimore detective joins forces with Poe to stop him from making his stories a reality.

Director:
James McTeigue
Writers:
Ben Livingston (screenplay), Hannah Shakespeare (screenplay)
Stars:
John Cusack, Alice Eve and Luke Evans 

VIDEO :- HD-1080p FROM MY OWN BLU-RAY
AUDIO :- HINDI 5.1CH ORIGINAL FROM MY SONY-DVD

General
************
Complete name : The Raven 2012 720P BRRIP AUD-HINDI DD-5.1 (ORIGINAL BY GPSOFT)
Format : Matroska
Format version : Version 2
Duration : 1h 59mn
Overall bit rate : 2 632 Kbps
Movie name : The Raven 2012 720P BRRIP AUD-HINDI DD-5.1 (ORIGINAL BY GPSOFT)
Writing application : mkvmerge v5.1.0 ('And so it goes') built on March 27 2012 23:58:28
Writing library : libebml v1.2.3 + libmatroska v1.3.0

Video
********
ID : 1
Format : AVC
Format/Info : Advanced Video Codec
Format profile : Main@L3.1
Format settings, CABAC : Yes
Format settings, ReFrames : 1 frame
Muxing mode : Header stripping
Codec ID : V_MPEG4/ISO/AVC
Duration : (1h 59mn 23se)
Bit rate : 2 119 Kbps
Width : 1 280 pixels
Height : 688 pixels
Display aspect ratio : 1.860
Frame rate : 25.000 fps
Original frame rate : 23.976 fps
Color space : YUV
Chroma subsampling : 4:2:0
Bit depth : 8 bits
Scan type : Progressive
Bits/(Pixel*Frame) : 0.096
Stream size : 1.78 GiB (81%)
Title : The Raven 2012 720P BRRIP AUD-HINDI DD-5.1 (ORIGINAL BY GPSOFT)

http://www.youtube.com/watch?v=yeLFDaZ-7NU&feature=fvst

Audio
********
ID : 2
Format : AC-3
Format/Info : Audio Coding 3
Mode extension : CM (complete main)
Muxing mode : Header stripping
Codec ID : A_AC3
Duration : (1h 59mn 23se)
Bit rate mode : Constant
Bit rate : 448 Kbps
Channel(s) : 6 channels
Channel positions : Front: L C R, Side: L R, LFE
Sampling rate : 48.0 KHz
Bit depth : 16 bits
Compression mode : Lossy
Delay relative to video : 2s 500ms
Stream size : 383 MiB (17%)
Title : HINDI DD-5.1 (ORIGINAL BY GPSOFT)
Language : Hindi
Default : Yes
Forced : No

image
Vollgesamte.Titten.Girls.German.XXX.DVDRiP.XviD-KissMyDick/kmd-vtg.nfo 6.402 KB
Vollgesamte.Titten.Girls.German.XXX.DVDRiP.XviD-KissMyDick/kmd-vtg.r00 50 MB
Vollgesamte.Titten.Girls.German.XXX.DVDRiP.XviD-KissMyDick/kmd-vtg.r01 50 MB
Gathering some info...

Register and log in Isohunt and see no captcha anymore!

4000 symbols left
Hash 5BD61BAD6B80FDA59EC962487D875085F3890F9A

Related torrents for "The Raven 2012 720P BRRIP AUDIO-HINDI DD-5.1 (ORIGINAL BY GPSOFT)"

Torrent search:

hd hindi 2012 bd