imdb
rating

7.0
The Amazing Spider-Man

The Amazing Spider-Man (2012)

Action, Adventure, Fantasy

Full description
quality   hd dvdrip screener x264 fullhd bd

The Amazing Spider man 2012 LIMITED BRRIP 720p AUDIO HINDI-5.1 Ch ORIGINAL (BY-GPSOFT)

Size 738.209 MB   0 seeders     Added 2012-03-28 10:24:41

Stream torrent
Starting‥ You need BitLord! Get it from 1BitLord.com
To download or stream you need BitLord. Visit them at BitLord.com
The Amazing Spider-Man (2012)
Action | Adventure | Thriller  -  
  

Peter Parker finds a clue that might help him understand why his parents disappeared when he was young. His path puts him on a collision course with Dr. Curt Connors, his father's former partner.

Director:
Marc Webb
Writers:
Alvin Sargent (screenplay), Steve Kloves (screenplay), and 3 more credits »
Stars:
Andrew Garfield, Emma Stone and Rhys Ifans 

VIDEO :- HD-1080p FROM MY OWN BLU-RAY
AUDIO :- HINDI 5.1CH ORIGINAL FROM MY SONY-DVD

General
************
Complete name : The Amazing Spider man 2012 720P BRRIP AUD-HINDI DD-5.1 (ORIGINAL BY GPSOFT)
Format : Matroska
Format version : Version 2
Duration : 1h 59mn
Overall bit rate : 2 632 Kbps
Movie name : The Amazing Spider man 2012 720P BRRIP AUD-HINDI DD-5.1 (ORIGINAL BY GPSOFT)
Writing application : mkvmerge v5.1.0 ('And so it goes') built on March 27 2012 23:58:28
Writing library : libebml v1.2.3 + libmatroska v1.3.0

Video
********
ID : 1
Format : AVC
Format/Info : Advanced Video Codec
Format profile : Main@L3.1
Format settings, CABAC : Yes
Format settings, ReFrames : 1 frame
Muxing mode : Header stripping
Codec ID : V_MPEG4/ISO/AVC
Duration : (1h 59mn 23se)
Bit rate : 2 119 Kbps
Width : 1 280 pixels
Height : 688 pixels
Display aspect ratio : 1.860
Frame rate : 25.000 fps
Original frame rate : 23.976 fps
Color space : YUV
Chroma subsampling : 4:2:0
Bit depth : 8 bits
Scan type : Progressive
Bits/(Pixel*Frame) : 0.096
Stream size : 1.78 GiB (81%)
Title : The Amazing Spider man 2012 720P BRRIP AUD-HINDI DD-5.1 (ORIGINAL BY GPSOFT)

http://www.youtube.com/watch?v=PtDDVBYHOTg&feature=fvst

Audio
********
ID : 2
Format : AC-3
Format/Info : Audio Coding 3
Mode extension : CM (complete main)
Muxing mode : Header stripping
Codec ID : A_AC3
Duration : (1h 59mn 23se)
Bit rate mode : Constant
Bit rate : 448 Kbps
Channel(s) : 6 channels
Channel positions : Front: L C R, Side: L R, LFE
Sampling rate : 48.0 KHz
Bit depth : 16 bits
Compression mode : Lossy
Delay relative to video : 2s 500ms
Stream size : 383 MiB (17%)
Title : HINDI DD-5.1 (ORIGINAL BY GPSOFT)
Language : Hindi
Default : Yes
Forced : No

image
Contortionist - Cassidy Morgan/Cassidy Morgan.wmv 976.075 MB
Contortionist - Cassidy Morgan/pic.jpg 102.806 KB
2012 LIMITED BRRIP 720p AUDIO HINDI-5.1 Ch ORIGINAL (BY-GPSOFT).nfo 1.452 KB
Gathering some info...

Register and log in Isohunt and see no captcha anymore!

4000 symbols left
Hash 60894B9A8A36F0B84F17846F0FDAE40D0B67C759

Related torrents for "The Amazing Spider man 2012 LIMITED BRRIP 720p AUDIO HINDI-5.1 Ch ORIGINAL (BY-GPSOFT)"

Torrent search:

hd hindi 2012 bd