imdb
rating

6.7
The Expendables 2

The Expendables 2 (2012)

Action, Adventure, Thriller

Full description

The Expendables 2 2012 LIMITED BRRIP 720p AUDIO HINDI-5.1 Ch ORIGINAL (BY-GPSOFT)

Size 738.209 MB   0 seeders     Added 2012-03-28 10:46:16

Stream torrent
Starting‥ You need BitLord! Get it from BitLord.com
To download or stream you need BitLord. Visit them at BitLord.com
The Expendables 2 (2012)
Action | Adventure | Thriller  -  
  

Mr. Church reunites the Expendables for what should be an easy paycheck, but when one of their men is murdered on the job, their quest for revenge puts them deep in enemy territory and up against an unexpected threat.

Director:
Simon West
Writers:
Sylvester Stallone, Dave Callaham (characters), and 1 more credit »
Stars:
Sylvester Stallone, Liam Hemsworth and Randy Couture 

VIDEO :- HD-1080p FROM MY OWN BLU-RAY
AUDIO :- HINDI 5.1CH ORIGINAL FROM MY SONY-DVD

General
************
Complete name : The Expendables 2 2012 720P BRRIP AUD-HINDI DD-5.1 (ORIGINAL BY GPSOFT)
Format : Matroska
Format version : Version 2
Duration : 1h 59mn
Overall bit rate : 2 632 Kbps
Movie name : The Expendables 2 2012 720P BRRIP AUD-HINDI DD-5.1 (ORIGINAL BY GPSOFT)
Writing application : mkvmerge v5.1.0 ('And so it goes') built on March 27 2012 23:58:28
Writing library : libebml v1.2.3 + libmatroska v1.3.0

Video
********
ID : 1
Format : AVC
Format/Info : Advanced Video Codec
Format profile : Main@L3.1
Format settings, CABAC : Yes
Format settings, ReFrames : 1 frame
Muxing mode : Header stripping
Codec ID : V_MPEG4/ISO/AVC
Duration : (1h 59mn 23se)
Bit rate : 2 119 Kbps
Width : 1 280 pixels
Height : 688 pixels
Display aspect ratio : 1.860
Frame rate : 25.000 fps
Original frame rate : 23.976 fps
Color space : YUV
Chroma subsampling : 4:2:0
Bit depth : 8 bits
Scan type : Progressive
Bits/(Pixel*Frame) : 0.096
Stream size : 1.78 GiB (81%)
Title : The Expendables 2 2012 720P BRRIP AUD-HINDI DD-5.1 (ORIGINAL BY GPSOFT)

http://www.youtube.com/watch?v=2kNGPkrlcvk&feature=relmfu

Audio
********
ID : 2
Format : AC-3
Format/Info : Audio Coding 3
Mode extension : CM (complete main)
Muxing mode : Header stripping
Codec ID : A_AC3
Duration : (1h 59mn 23se)
Bit rate mode : Constant
Bit rate : 448 Kbps
Channel(s) : 6 channels
Channel positions : Front: L C R, Side: L R, LFE
Sampling rate : 48.0 KHz
Bit depth : 16 bits
Compression mode : Lossy
Delay relative to video : 2s 500ms
Stream size : 383 MiB (17%)
Title : HINDI DD-5.1 (ORIGINAL BY GPSOFT)
Language : Hindi
Default : Yes
Forced : No

image
Euro.Domination.34.XXX.DVDRiP.XviD-CHiKANi/chi-edomination34-cd1.avi 734.908 MB
Euro.Domination.34.XXX.DVDRiP.XviD-CHiKANi/chi-edomination34-cd2.avi 732.942 MB
Euro.Domination.34.XXX.DVDRiP.XviD-CHiKANi/chi.edomination34.nfo 12.534 KB
Gathering some info...

Register and log in Isohunt and see no captcha anymore!

4000 symbols left
Hash 6E03BAD3A643C18F3CD742ED327E8E433F119EBB

Related torrents for "The Expendables 2 2012 LIMITED BRRIP 720p AUDIO HINDI-5.1 Ch ORIGINAL (BY-GPSOFT)"

Torrent search:

hd hindi 2012 bd