The Avengers (2012) R5 XviD IMAGiNE

Size 823.716 MB   57 seeders     Added 2012-04-26 16:05:23

Stream torrent
Starting‥ You need BitLord! Get it from 1BitLord.com
To download or stream you need BitLord. Visit them at BitLord.com
Plot:

Nick Fury of S.H.I.E.L.D. brings together a team of super humans to form The Avengers to help save the Earth from Loki and his army.



Format                           : AVI
Format/Info                      : Audio Video Interleave
Format profile                   : OpenDML
File size                        : 1.68 GiB
Duration                         : 1h 57mn
Overall bit rate                 : 2 049 Kbps
Writing application              : VirtualDubMod 1.5.10.2 (build 2542/release)
Writing library                  : VirtualDubMod build 2542/release
Original source form             : MAX TORRENTZ
Copyright                        : SIGISMUNT

Video
ID                               : 0
Format                           : MPEG-4 Visual
Format profile                   : AdvancedSimple@L5
Format settings, BVOP            : Yes
Format settings, QPel            : No
Format settings, GMC             : No warppoints
Format settings, Matrix          : Custom
Codec ID                         : XVID
Codec ID/Hint                    : XviD
Duration                         : 1h 57mn
Bit rate                         : 1 862 Kbps
Width                            : 720 pixels
Height                           : 304 pixels
Display aspect ratio             : 2.35:1
Frame rate                       : 23.976 fps
Resolution                       : 24 bits
Colorimetry                      : 4:2:0
Scan type                        : Progressive
Bits/(Pixel*Frame)               : 0.355
Stream size                      : 1.52 GiB (91%)
Writing library                  : XviD 1.2.0.dev47 (UTC 2006-11-01)

Audio
ID                               : 1
Format                           : AC-3
Format/Info                      : Audio Coding 3
Codec ID                         : 2000
Duration                         : 1h 57mn
Bit rate mode                    : Constant
Bit rate                         : 192 Kbps
Channel(s)                       : 2 channels
Channel positions                : L R
Sampling rate                    : 48.0 KHz
Stream size                      : 152 MiB (9%)
Alignment                        : Aligned on interleaves
Interleave, duration             : 68 ms (1.62 video frames)
Interleave, preload duration     : 192 ms


Source: DVD (perfect a/v/sync good quality,sample included)
This torrent is not seedbox supported,please seed it,
DESPICABLE.ME.DVDrip.English.Xvid.AC3.6ch-rucucu/DESPICABLE.ME.ENGLISH.DVDrip.Xvid.AC3. 6CH-rucucu.avi 1.601 GB
DESPICABLE.ME.DVDrip.English.Xvid.AC3.6ch-rucucu/Sample.Despiclable.Me.DVDrip,Xvid.AC3.6Ch-rucucu.avi 13.525 MB
DESPICABLE.ME.DVDrip.English.Xvid.AC3.6ch-rucucu/Torrent downloaded from Demonoid.com.txt 47 B
Gathering some info...

Register and log in Isohunt and see no captcha anymore!

4000 symbols left
Hash BCFF5B8C2A5AF8D228550688470AE7C9E647D2BF

Related torrents for "The Avengers (2012) R5 XviD IMAGiNE"

Torrent search:

2012 dvd