imdb
rating

5.5
Casa De Mi Padre

Casa De Mi Padre (2012)

Comedy, Western

Full description

Casa de mi Padre 2012 720p BDRip x264 AC3 subs [greyshadow].torrent

Size 650.27 MB   0 seeders     Added 2012-05-24 13:13:19

Stream torrent
Starting‥ You need BitLord! Get it from 1BitLord.com
To download or stream you need BitLord. Visit them at BitLord.com
  ____      _    U _____ u    _     ____   U _____ u      ____   U _____ uU _____ u____       
U|  _" u  |"|   | ___"|/U  /"  u/ __"| u| ___"|/     / __"| u| ___"|/| ___"|/  _"      
| |_) |/U | | u  |  _|"   / _ /<\___ /  |  _|"      <\___ /  |  _|"   |  _|"/| | | |     
 |  __/   | |/__ | |___   / ___  u___) |  | |___       u___) |  | |___   | |___U| |_| |    
 |_|       |_____||_____| /_/   \_|____/>> |_____|      |____/>> |_____|  |_____||____/ u    
 ||>>_     //  \ <<   >>  \    >> )(  (__)<<   >>       )(  (__)<<   >>  <<   >> |||_       
(__)__)   (_")("_)__) (__)(__)  (__)__)    (__) (__)     (__)    (__) (__)(__) (__)__)_)  




??????????????????????????????????????????????????????????????????????
??????????????????????????????????????????????????????????????????????
??????????????????????????????????????????????????????????????????????
??????????????????????????????????????????????????????????????????????
??????????????????????????????????????????????????????????????????????
??????????????????????????????????????????????????????????????????????
??????????????????????????????????????????????????????????????????????
??????????????????????????????????????????????????????????????????????
??????????????????????????????????????????????????????????????????????
??????????????????????????????????????????????????????????????????????
??????????????????????????????????????????????????????????????????????
??????????????????????????????????????????????????????????????????????
??????????????????????????????????????????????????????????????????????
??????????????????????????????????????????????????????????????????????
??????????????????????????????????????????????????????????????????????
??????????????????????????????????????????????????????????????????????
??????????????????????????????????????????????????????????????????????
??????????????????????????????????????????????????????????????????????
??????????????????????????????????????????????????????????????????????
??????????????????????????????????????????????????????????????????????
??????????????????????????????????????????????????????????????????????
??????????????????????????????????????????????????????????????????????
??????????????????????????????????????????????????????????????????????
??????????????????????????????????????????????????????????????????????
??????????????????????????????????????????????????????????????????????
??????????????????????????????????????????????????????????????????????
??????????????????????????????????????????????????????????????????????
??????????????????????????????????????????????????????????????????????
??????????????????????????????????????????????????????????????????????
??????????????????????????????????????????????????????????????????????
??????????????????????????????????????????????????????????????????????
??????????????????????????????????????????????????????????????????????
??????????????????????????????????????????????????????????????????????
??????????????????????????????????????????????????????????????????????
??????????????????????????????????????????????????????????????????????
??????????????????????????????????????????????????????????????????????
??????????????????????????????????????????????????????????????????????
??????????????????????????????????????????????????????????????????????
??????????????????????????????????????????????????????????????????????


MEDIA INFO
General
Complete name                            : Intruders 2011 720p BDRip x264 AC3 subs [greyshadow].mkv
Format                                   : Matroska
Format version                           : Version 2
Duration                                 : 1h 39mn
Overall bit rate                         : 5641 Kbps
Encoded date                             : UTC 2012-05-13 14:13:13
Writing application                      : mkvmerge v5.5.0 ('Healer') built on Apr  6 2012 21:43:24
Writing library                          : libebml v1.2.3 + libmatroska v1.3.0

Video
ID                                       : 1
Format                                   : AVC
Format/Info                              : Advanced Video Codec
Format profile                           : High@L4.1
Format settings, CABAC                   : Yes
Format settings, ReFrames                : 11 frames
Codec ID                                 : V_MPEG4/ISO/AVC
Bit rate                                 : 5000 Kbps
Width                                    : 1280 pixels
Height                                   : 544 pixels
Display aspect ratio                     : 2.35:1
Frame rate                               : 23.976 fps
Color space                              : YUV
Chroma subsampling                       : 4:2:0
Bit depth                                : 8 bits
Scan type                                : Progressive
Bits/(Pixel*Frame)                       : 0.299
Stream size                              : 3.41 GiB (87%)
Writing library                          : x264 core 124 r2197 69a0443
Language                                 : English
Default                                  : Yes
Forced                                   : No
Matrix coefficients                      : BT.709-5, BT.1361, IEC 61966-2-4 709, SMPTE RP177

Audio
ID                                       : 2
Format                                   : AC-3
Format/Info                              : Audio Coding 3
Mode extension                           : CM (complete main)
Format settings, Endianness              : Big
Codec ID                                 : A_AC3
Bit rate mode                            : Constant
Bit rate                                 : 640 Kbps
Channel(s)                               : 6 channels
Channel positions                        : Front: L C R, Side: L R, LFE
Sampling rate                            : 48.0 KHz
Bit depth                                : 16 bits
Compression mode                         : Lossy
Stream size                              : 458 MiB (11%)
Title                                    : AC3 5.1 640 kbps
Language                                 : English
Default                                  : Yes
Forced                                   : No

Text #1
ID                                       : 3
Format                                   : UTF-8
Codec ID                                 : S_TEXT/UTF8
Codec ID/Info                            : UTF-8 Plain Text
Title                                    : English .srt for Spanish parts
Language                                 : English
Default                                  : Yes
Forced                                   : No

Text #2
ID                                       : 4
Format                                   : UTF-8
Codec ID                                 : S_TEXT/UTF8
Codec ID/Info                            : UTF-8 Plain Text
Title                                    : Spanish .srt for English parts
Language                                 : English
Default                                  : No
Forced                                   : No

Menu
00:00:00.000                             : en:00:00:00.000
00:08:09.656                             : en:00:08:09.656
00:15:37.645                             : en:00:15:37.645
00:23:58.228                             : en:00:23:58.228
00:33:49.402                             : en:00:33:49.402
00:44:55.985                             : en:00:44:55.985
00:50:50.714                             : en:00:50:50.714
00:58:30.507                             : en:00:58:30.507
01:06:43.291                             : en:01:06:43.291
01:16:32.004                             : en:01:16:32.004
01:21:19.708                             : en:01:21:19.708
01:34:34.294                             : en:01:34:34.294
Contortionist - Cassidy Morgan/Cassidy Morgan.wmv 976.075 MB
Contortionist - Cassidy Morgan/pic.jpg 102.806 KB
2012 720p BDRip x264 AC3 subs [greyshadow].NFO 7.95 KB
Gathering some info...

Register and log in Isohunt and see no captcha anymore!

4000 symbols left
Hash A89272BDB830D632193503BD2A429DCDDBC3770D

Related torrents for "Casa de mi Padre 2012 720p BDRip x264 AC3 subs [greyshadow].torrent"

Torrent search:

subs x264 hd 2012 bd