imdb
rating

5.8
Earthquake

Earthquake (1974)

Action, Drama, Thriller

Full description

Earthquake (1974) DVDRip.x264.AC3-PsiX

Size 1.527 GB   10 seeders     Added 2013-04-26 04:47:53

Stream torrent
Starting‥ You need BitLord! Get it from BitLord.com
10
To download or stream you need BitLord. Visit them at BitLord.com
Earthquake (1974) (multisub)DVDRip.x264.AC3-PsiX


--------------------------------------------------


Various stories of various people as an
earthquake of un-imagineable magnitude
hits Los Angeles.





Director:

Mark Robson

Writers:

George Fox, Mario Puzo

Stars:

Charlton Heston, Ava Gardner, George Kennedy




---------------------------------------------------------------------



Earthquake (1974) DVDRip.x264.AC3-PsiX.mkv
Format : Matroska
Format version : Version 2
File size : 1.42 GiB
Duration : 1h 57mn
Overall bit rate : 1 734 Kbps
Encoded date : UTC 2012-05-09 15:53:10
Writing application : mkvmerge v5.2.1 ('A Far Off Place') built on Jan 2 2012 23:21:10
Writing library : libebml v1.2.3 + libmatroska v1.3.0

Video
ID : 1
Format : AVC
Format/Info : Advanced Video Codec
Format profile : Main@L3.0
Format settings, CABAC : Yes
Format settings, ReFrames : 4 frames
Codec ID : V_MPEG4/ISO/AVC
Duration : 1h 57mn
Bit rate : 1 284 Kbps
Width : 720 pixels
Height : 304 pixels
Display aspect ratio : 2.35:1
Frame rate mode : Constant
Frame rate : 25.000 fps
Color space : YUV
Chroma subsampling : 4:2:0
Bit depth : 8 bits
Scan type : Progressive
Bits/(Pixel*Frame) : 0.235
Stream size : 1.02 GiB (72%)
Writing library : x264 core 120 r2164 da19765


Audio
ID : 2
Format : AC-3
Format/Info : Audio Coding 3
Mode extension : CM (complete main)
Format settings, Endianness : Big
Codec ID : A_AC3
Duration : 1h 57mn
Bit rate mode : Constant
Bit rate : 448 Kbps
Channel(s) : 6 channels
Channel positions : Front: L C R, Side: L R, LFE
Sampling rate : 48.0 KHz
Bit depth : 16 bits
Compression mode : Lossy
Stream size : 375 MiB (26%)
Default : Yes
Forced : No


---------------------------------------------------------------------------------


Encoded............: PsiX
Source.............:DVD9
Subs srt..........Arabic, Czech, English, Greek, Hungarian, Romamian, Turkish. 


---------------------------------------------------------------------------------		
Earthquake (1974) DVDRip.x264.AC3-PsiX/Subs/Earthquake.sub 3.748 MB
Earthquake (1974) DVDRip.x264.AC3-PsiX/Subs/Earthquake_en.srt 176.17 KB
Earthquake (1974) DVDRip.x264.AC3-PsiX/Subs/Earthquake_gr.srt 160.8 KB
Gathering some info...

Register and log in Isohunt and see no captcha anymore!

4000 symbols left
Hash 9416f9be2f4509cd6c52367e9ff6997c33360990

Related torrents for "Earthquake (1974) DVDRip.x264.AC3-PsiX"

Torrent search:

dvdrip 1974 x264