Wife

Wife (2003)

Drama, Family

Full description

My Wife's Hot Friend - Nikita Bellucci 720p

Size 626.22 MB   0 seeders     Added 2013-03-11 19:38:19

Stream torrent
Starting‥ You need BitLord! Get it from 1BitLord.com
To download or stream you need BitLord. Visit them at BitLord.com
[URL=http://imgchili.com/show/26970/26970626_ektobor.jpg][IMG]image[/IMG][/URL] 
[url=http://imgchili.com/show/26967/26967771_ekto.jpg][img]image[/img][/url] 




General:
      Format : MPEG-4
      Format profile : Base Media
      Codec ID : isom
      File size : 597 MiB
      Duration : 26mn 37s
      Overall bit rate : 3 135 Kbps
      Encoded date : UTC 2013-03-05 22:25:15
      Tagged date : UTC 2013-03-05 22:25:15
      Writing application : Lavf53.32.100
   Video #1
      ID : 1
      Format : AVC
      Format/Info : Advanced Video Codec
      Format profile : High@L3.0
      Format settings, CABAC : Yes
      Format settings, ReFrames : 4 frames
      Codec ID : avc1
      Codec ID/Info : Advanced Video Coding
      Duration : 26mn 37s
      Bit rate : 3 000 Kbps
      Width : 1 280 pixels
      Height : 720 pixels
      Display aspect ratio : 16:9
      Frame rate mode : Constant
      Frame rate : 30.000 fps
      Color space : YUV
      Chroma subsampling : 4:2:0
      Bit depth : 8 bits
      Scan type : Progressive
      Bits/(Pixel*Frame) : 0.109
      Stream size : 571 MiB (96%)
      Writing library : x264 core 120
      Encoding settings : cabac=1 / ref=4 / deblock=1:0:0 / analyse=0x3:0x113 / me=umh / subme=7 / psy=0 / mixed_ref=1 / me_range=16 / chroma_me=1 / trellis=1 / 8x8dct=1 / cqm=0 / deadzone=21,11 / fast_pskip=0 / chroma_qp_offset=0 / threads=48 / sliced_threads=0 / nr=0 / decimate=1 / interlaced=0 / bluray_compat=0 / constrained_intra=0 / bframes=16 / b_pyramid=2 / b_adapt=1 / b_bias=0 / direct=3 / weightb=1 / open_gop=0 / weightp=2 / keyint=300 / keyint_min=25 / scenecut=40 / intra_refresh=0 / rc=2pass / mbtree=0 / bitrate=3000 / ratetol=1.0 / qcomp=0.60 / qpmin=10 / qpmax=51 / qpstep=4 / cplxblur=20.0 / qblur=0.5 / ip_ratio=1.40 / pb_ratio=1.30 / aq=1:1.00
      Language : English
      Encoded date : UTC 2013-03-05 22:25:15
      Tagged date : UTC 2013-03-05 22:25:15
   Audio #2
      ID : 2
      Format : AAC
      Format/Info : Advanced Audio Codec
      Format profile : LC
      Codec ID : 40
      Duration : 26mn 37s
      Bit rate mode : Constant
      Bit rate : 128 Kbps
      Channel(s) : 2 channels
      Channel positions : Front: L R
      Sampling rate : 44.1 KHz
      Compression mode : Lossy
      Delay relative to video : 67ms
      Stream size : 24.3 MiB (4%)
      Language : English
      Encoded date : UTC 2013-03-05 22:25:15
      Tagged date : UTC 2013-03-05 22:25:15
Nikita Bellucci.mp4 626.22 MB
Gathering some info...

Register and log in Isohunt and see no captcha anymore!

4000 symbols left
Hash 48289D517F509C1065B8C97F11FE5CB29F545623

Related torrents for "My Wife's Hot Friend - Nikita Bellucci 720p"

Torrent search:

hd