Video Hits

Video Hits (2004)

Family, Music

Full description

VIDEO_TS

Size 717.998 MB   9 seeders     Added 2013-04-26 22:24:35

Stream torrent
Starting‥ You need BitLord! Get it from BitLord.com
To download or stream you need BitLord. Visit them at BitLord.com
 image 
image 
image 
image 
image 
image

Media Info - 
Video
Format : MPEG Video
Format version : Version 2
Format profile : Main@Main
Format settings, BVOP : Yes
Format settings, Matrix : Default
Duration : 2h 5mn
Bit rate mode : Variable
Bit rate : 620 Kbps
Maximum bit rate : 9 680 Kbps
Width : 352 pixels
Height : 288 pixels
Display aspect ratio : 4:3
Frame rate : 25.000 fps
Standard : PAL
Color space : YUV
Chroma subsampling : 4:2:0
Bit depth : 8 bits
Scan type : Progressive
Compression mode : Lossy
Bits/(Pixel*Frame) : 0.245
Stream size : 556 MiB (81%)

Audio
Format : MPEG Audio
Format version : Version 1
Format profile : Layer 2
Duration : 2h 5mn
Bit rate mode : Constant
Bit rate : 128 Kbps
Channel(s) : 2 channels
Sampling rate : 48.0 KHz
Compression mode : Lossy
Stream size : 115 MiB (17%)

Sharer : TJ_DA_King

Seeding 24x7... Extreme Seeding...


Enjoy!
		
VIDEO_TS/VTS_01_0.VOB 59.392 KB
VIDEO_TS/VTS_01_1.VOB 717.687 MB
VIDEO_TS/VTS_01_0.IFO 83.968 KB
Gathering some info...

Register and log in Isohunt and see no captcha anymore!

4000 symbols left
Hash eeca47e3f4f6afcbceb1a00f236288fc0f34f85a

Related torrents for "VIDEO_TS"