imdb
rating

8.2
Over

Over (2015)

Thriller, Crime

Full description
quality   dvdrip h264 bd

21 And Over 2013 WEBRip 480p x264 AAC - VYTO [P2PDL]

Size 326.307 MB   0 seeders     Added 2013-04-27 00:02:50

Stream torrent
Starting‥ You need BitLord! Get it from BitLord.com
To download or stream you need BitLord. Visit them at BitLord.com
_________________________  Visit us at _________________________
  
http://p2pdl.com  ____________________________  http://p2pdl.com

21 And Over 2013 WEBRip 480p x264 AAC - VYTO

Genre: Comedy
Plot: The night before his big medical school 
interview, a promising student celebrates his 
21st birthday with his two best friends
Director: Jon Lucas, Scott Moore
Stars: Miles Teller, Justin Chon, Sarah Wright
Rated: Rated R for crude and sexual content, 
pervasive language, some graphic nudity, 
drugs and drinking

Info: 
http://www.imdb.com/title/tt1711425/

General
Complete name                  : 21 And Over 2013 WEBRip 480p x264 AAC - VYTO.mp4
Format                         : MPEG-4
File size                      : 304 MiB
Duration                       : 1h 29mn
Overall bit rate mode          : Variable
Overall bit rate               : 477 Kbps

Video
Format                         : AVC
Format/Info                    : Advanced Video Codec
Format profile                 : High 10@L4.1
Bit rate                       : 434 Kbps
Width                          : 720 pixels
Height                         : 400 pixels
Display aspect ratio           : 16:9
Frame rate mode                : Constant
Frame rate                     : 25.000 fps
Bit depth                      : 10 bits
Stream size                    : 277 MiB (91%)
Writing library                : x264 core 130 r2273 b3065e6

Audio
Format                         : AAC
Format/Info                    : Advanced Audio Codec
Duration                       : 1h 29mn
Bit rate mode                  : Variable
Channel(s)                     : 2 channels
Channel positions              : Front: L R
Sampling rate                  : 48.0 KHz / 24.0 KHz
Stream size                    : 25.5 MiB (8%)


Subtitle                       : Yes (English)
Source                         : 1080p.WEB-DL.X264.AC3.5.1.HQ.Hive-CM8 (Thanks)

Screenshots:
 
image 
image 
image 
image 
image 
image

----------------------------------------------------------------------------------------------------


Encoded using revolutionary 10bit encoding, which enables us to provide you more crispier 
and sharper images at small sizes, just make sure you follow our instructions without a fault.
Recommend to you to use latest version of VLC player. Install K-Lite Codec Pack or shark007 codecs
in case of any kind of problem in playback (For non-VLC Media Player users). Alternatively, install
Core AVC codecs, the fastest decoder that there is coupled with Community Center Codec Pack and play
on Windows Media Player Classic. Check sample to be sure.
Enjoy!

Encoder Notes:Looking For Early Access To Anything You Can Provide DVDScr, R5, DVDR, BluRay, Direct
Audio, Music Releases and Seedboxes. We require dedicated servers, so as to do more 
and fast releases of movies.
If You Got anything to offer please contact us at "prg@hush.com".

Face book Fan Page:   
http://www.fb.me/p2pdl		
21 And Over 2013 WEBRip 480p x264 AAC - VYTO [P2PDL]/21 And Over 2013 WEBRip 480p x264 AAC - VYTO/21 And Over 2013 WEBRip 480p x264 AAC - VYTO.mp4 319.199 MB
21 And Over 2013 WEBRip 480p x264 AAC - VYTO [P2PDL]/Sample.mp4 7.019 MB
21 And Over 2013 WEBRip 480p x264 AAC - VYTO [P2PDL]/21 And Over 2013 WEBRip 480p x264 AAC - VYTO/21 And Over 2013 WEBRip 480p x264 AAC - VYTO.srt 83.521 KB
Gathering some info...

Register and log in Isohunt and see no captcha anymore!

4000 symbols left
Hash fede3c72c55c559ea4b5475624d48b97c6db8c46

Related torrents for "21 And Over 2013 WEBRip 480p x264 AAC - VYTO [P2PDL]"

Torrent search:

x264 web-rip 2013