imdb
rating

6.2
The Girl

The Girl (2012)

Drama

Full description
quality   screener dvdrip bd

See.Girl.Run.2012.HDRip.XVID.AC3.HQ.Hive-CM8

Size 1.291 GB   0 seeders     Added 2013-04-27 00:59:33

Stream torrent
Starting‥ You need BitLord! Get it from BitLord.com
To download or stream you need BitLord. Visit them at BitLord.com
##     ## #### ##     ## ########          ######  ##     ##  #######  
##     ##  ##  ##     ## ##               ##    ## ###   ### ##     ## 
##     ##  ##  ##     ## ##               ##       #### #### ##     ## 
#########  ##  ##     ## ######   ####### ##       ## ### ##  #######  
##     ##  ##   ##   ##  ##               ##       ##     ## ##     ## 
##     ##  ##    ## ##   ##               ##    ## ##     ## ##     ## 
##     ## ####    ###    ########          ######  ##     ##  #######  

###########  Thx Hive - CM8 Doing It Right The First Time  ###########


[IMG]image[/IMG]


See.Girl.Run.2012.HDRip.XVID.AC3.HQ.Hive-CM8


Source: 1080p Web-DL

Video.: 720x304 @bitrate 1500 2pass
Audio.: English AC3 5.1 @384
Subs..: Yes, English in srt/subs
Sample: Yes, included


IMDb..: http://www.imdb.com/title/tt1954811/


ENCODE
got this brand new funny comedy
and video had great quality
added sharpness and denoise
got very nice
enjoy


General
Complete name                  : See.Girl.Run.2012.HDRip.XVID.AC3.HQ.Hive-CM8.avi
Format                         : AVI
Format/Info                    : Audio Video Interleave
File size                      : 1.18 GiB
Duration                       : 1h 29mn
Overall bit rate               : 1 893 Kbps
Writing application            : Nandub v1.0rc2
Writing library                : Nandub build 1853/release

Video
ID                             : 0
Format                         : MPEG-4 Visual
Format profile                 : Advanced Simple@L5
Format settings, BVOP          : 2
Format settings, QPel          : Yes
Format settings, GMC           : No warppoints
Format settings, Matrix        : Default (H.263)
Muxing mode                    : Packed bitstream
Codec ID                       : XVID
Codec ID/Hint                  : XviD
Duration                       : 1h 29mn
Bit rate                       : 1 500 Kbps
Width                          : 720 pixels
Height                         : 304 pixels
Display aspect ratio           : 2.35:1
Frame rate                     : 23.976 fps
Color space                    : YUV
Chroma subsampling             : 4:2:0
Bit depth                      : 8 bits
Scan type                      : Progressive
Compression mode               : Lossy
Bits/(Pixel*Frame)             : 0.286
Stream size                    : 959 MiB (79%)
Writing library                : XviD 1.2.1 (UTC 2008-12-04)

Audio
ID                             : 1
Format                         : AC-3
Format/Info                    : Audio Coding 3
Mode extension                 : CM (complete main)
Format settings, Endianness    : Big
Codec ID                       : 2000
Duration                       : 1h 29mn
Bit rate mode                  : Constant
Bit rate                       : 384 Kbps
Channel(s)                     : 6 channels
Channel positions              : Front: L C R, Side: L R, LFE
Sampling rate                  : 48.0 KHz
Bit depth                      : 16 bits
Compression mode               : Lossy
Stream size                    : 246 MiB (20%)
Alignment                      : Split accross interleaves
Interleave, duration           : 42 ms (1.00 video frame)
Interleave, preload duration   : 500 ms


PLOT
A young woman decides to revisit her past relationships
in order to find some guidance in her current life.


CAST
Robin Tunney     ...     Emmie
Adam Scott       ...     Jason
Jeremy Strong    ...     Brandon
William Sadler   ...     Marty


[img]image[/img]
[img]image[/img]
[img]image[/img]
[img]image[/img]
[img]image[/img]
[img]image[/img]
[img]image[/img]




GREETZ
ViSiON,SPK,SceneLovers,PRESTiGE,SANTi,3LT0N,YanKeeS,COPYxRIGHT,THC,T0XiC
D2U,LKRG,ADTRG,Feel-Free,KoDeKinG,FLAWL3SS,WBZ,BHRG,26K,NOVA,MAGNET
Unevano,BigVik,Rapeseed,SAFC,goldadvance,KaN1vE,Pinnz,Wayne,TED
SeeN,jtr,Limey,ICONiK,4PlayHD,THEDEN-RG,eXceSs,AKS74u,HiGH
Mr Hive,trepario,stallone,and most P2P groups
Great Work Guys!

LOOKING FOR ANYTHING YOU WANT TO LOOK AND SOUND BETTER

CM8@hushmail.com
		
See.Girl.Run.2012.HDRip.XVID.AC3.HQ.Hive-CM8/www.RARBG.com.txt 45 B
See.Girl.Run.2012.HDRip.XVID.AC3.HQ.Hive-CM8/See.Girl.Run.2012.HDRip.XVID.AC3.HQ.Hive-CM8.avi 1.27 GB
See.Girl.Run.2012.HDRip.XVID.AC3.HQ.Hive-CM8/sample.avi 20.543 MB
Gathering some info...

Register and log in Isohunt and see no captcha anymore!

4000 symbols left
Hash cb495d36c0ccf50e7abb8b65763d107945ba111b

Related torrents for "See.Girl.Run.2012.HDRip.XVID.AC3.HQ.Hive-CM8"

Torrent search:

hd 2012