imdb
rating

6.5
The Grandmaster

The Grandmaster (2013)

Action, Drama, History

Full description

The.Grandmaster.2013.BRRip.XviD-PsiX

Size 730.215 MB   736 seeders     Added 2013-04-27 01:18:36

Stream torrent
Starting‥ You need BitLord! Get it from BitLord.com
10
To download or stream you need BitLord. Visit them at BitLord.com
The Grandmaster 2013 (multisub) BRRip XviD PsiX



--------------------------------------------------------------




The story of martial-arts master Ip Man, the man who
trained Bruce Lee.

The movie begins with Ip Man reflecting on martial arts, and then
cuts to a scene of a fight under the rain between Ip and a dozen
combatants. Ip Man wins, and experiences flashbacks of his life,
from his early training at the age of seven to his induction into
martial arts by his master Chan Wah-shun, and his marriage to
his wife Cheung Wing-sing.




Yi dai zong shi (2013)
The Grandmasters (2013)



Action | Biography | Drama



Director: Kar Wai Wong

Writers: Kar Wai Wong (story), Kar Wai Wong

Stars: Ziyi Zhang, Tony Leung Chiu Wai, Cung Le ...




-------------------------------------------------------------------



 
image
 
image
 
image
 
image
 
image




--------------------------------------------------------------------



The.Grandmaster.2013.BRRip.XviD-PsiX.avi
Format : AVI
Format/Info : Audio Video Interleave
File size : 696 MiB
Duration : 2h 10mn
Overall bit rate : 748 Kbps

Video
ID : 0
Format : MPEG-4 Visual
Format profile : Advanced Simple@L5
Format settings, BVOP : 4
Format settings, QPel : No
Format settings, GMC : No warppoints
Format settings, Matrix : Default (H.263)
Muxing mode : Packed bitstream
Codec ID : XVID
Codec ID/Hint : XviD
Duration : 2h 10mn
Bit rate : 630 Kbps
Width : 640 pixels
Height : 272 pixels
Display aspect ratio : 2.35:1
Frame rate : 24.000 fps
Color space : YUV
Chroma subsampling : 4:2:0
Bit depth : 8 bits
Scan type : Progressive
Compression mode : Lossy
Bits/(Pixel*Frame) : 0.151
Stream size : 586 MiB (84%)
Writing library : XviD 1.2.1 (UTC 2008-12-04)

Audio
ID : 1
Format : MPEG Audio
Format version : Version 1
Format profile : Layer 3
Mode : Joint stereo
Mode extension : MS Stereo
Codec ID : 55
Codec ID/Hint : MP3
Duration : 2h 10mn
Bit rate mode : Constant
Bit rate : 112 Kbps
Channel(s) : 2 channels
Sampling rate : 44.1 KHz
Compression mode : Lossy
Stream size : 104 MiB (15%)
Alignment : Aligned on interleaves
Interleave, duration : 167 ms (4.00 video frames)
Interleave, preload duration : 208 ms
Title : The.Grandmaster.2013.BluRay.1080p.DTS.2Audio.x264-CHD - [0] Chinese_new
Writing library : LAME3.99r
Encoding settings : -m j -V 4 -q 2 -lowpass 15.6 -b 112



------------------------------------------------------------------



Encoded............: PsiX
Source.............:1080p-CHD (Thanks)
Subs srt.......... English, Turkish, Indonesian, Italian, Romanian, Vietnamese 


-------------------------------------------------------------------		
The.Grandmaster.2013.BRRip.XviD-PsiX/Subs/Vietnamese.srt 152.344 KB
The.Grandmaster.2013.BRRip.XviD-PsiX/Subs/Indonesian.srt 124.346 KB
The.Grandmaster.2013.BRRip.XviD-PsiX/Subs/Italian.srt 86.906 KB
Gathering some info...

Register and log in Isohunt and see no captcha anymore!

4000 symbols left
Hash b022df9d67a33cae003096f7e822e3e3f48b5dcb

Related torrents for "The.Grandmaster.2013.BRRip.XviD-PsiX"

Torrent search:

bd 2013