Dial M for Murder

Dial M for Murder (1974)

Thriller

Full description

Dial M for Murder 1954 720p BRRip x264 MP4 AAC-CC

Size 2.762 GB   2 seeders     Added 2013-04-27 02:46:50

Stream torrent
Starting‥ You need BitLord! Get it from BitLord.com
To download or stream you need BitLord. Visit them at BitLord.com
Source: Dial.M.for.Murder.1954.720p.BluRay.X264-AMIABLE Thanks!

Subs ( Vobsub ) : Dutch, English, French, German, Italian, Japanese, Portuguese, Spanish. 

Subs ( Subrip ) : Arabic, Danish, Dutch, English, Farsi-Persian, French, Greek, Hebrew, Indonesian, Italian, Portuguese, Romanian, Servian, Spanish.

Sample and Screens included.

General
Complete name                            : Dial M for Murder 1954 720p BRRip x264 MP4 AAC-CC.mp4
Format                                   : MPEG-4
Format profile                           : Base Media
Codec ID                                 : isom
File size                                : 2.52 GiB
Duration                                 : 1h 45mn
Overall bit rate mode                    : Variable
Overall bit rate                         : 3 422 Kbps
Encoded date                             : UTC 2013-04-07 13:16:35
Tagged date                              : UTC 2013-04-07 13:16:35
Writing application                      : Yamb 2.1.0.0 

Video
ID                                       : 1
Format                                   : AVC
Format/Info                              : Advanced Video Codec
Format profile                           : High@L4.1
Format settings, CABAC                   : Yes
Format settings, ReFrames                : 5 frames
Codec ID                                 : avc1
Codec ID/Info                            : Advanced Video Coding
Duration                                 : 1h 45mn
Bit rate                                 : 3 270 Kbps
Maximum bit rate                         : 19.4 Mbps
Width                                    : 1 280 pixels
Height                                   : 720 pixels
Display aspect ratio                     : 16:9
Frame rate mode                          : Variable
Frame rate                               : 23.976 fps
Minimum frame rate                       : 23.256 fps
Maximum frame rate                       : 25.000 fps
Color space                              : YUV
Chroma subsampling                       : 4:2:0
Bit depth                                : 8 bits
Scan type                                : Progressive
Bits/(Pixel*Frame)                       : 0.148
Stream size                              : 2.41 GiB (95%)
Writing library                          : x264 core 112
Encoding settings                        : cabac=1 / ref=5 / deblock=1:0:0 / analyse=0x3:0x113 / me=hex / subme=7 / psy=1 / psy_rd=1.00:0.00 / mixed_ref=1 / me_range=16 / chroma_me=1 / trellis=1 / 8x8dct=1 / cqm=0 / deadzone=21,11 / fast_pskip=1 / chroma_qp_offset=-2 / threads=3 / sliced_threads=0 / nr=0 / decimate=1 / interlaced=0 / constrained_intra=0 / bframes=5 / b_pyramid=2 / b_adapt=2 / b_bias=0 / direct=1 / weightb=1 / open_gop=0 / weightp=2 / keyint=240 / keyint_min=23 / scenecut=40 / intra_refresh=0 / rc_lookahead=50 / rc=abr / mbtree=1 / bitrate=3270 / ratetol=1.0 / qcomp=0.60 / qpmin=3 / qpmax=51 / qpstep=4 / ip_ratio=1.40 / aq=1:1.00
Encoded date                             : UTC 2013-04-07 20:17:39
Tagged date                              : UTC 2013-04-07 13:19:54
Color primaries                          : BT.709
Transfer characteristics                 : BT.709
Matrix coefficients                      : BT.709

Audio
ID                                       : 2
Format                                   : AAC
Format/Info                              : Advanced Audio Codec
Format profile                           : LC
Codec ID                                 : 40
Duration                                 : 1h 45mn
Bit rate mode                            : Variable
Bit rate                                 : 150 Kbps
Maximum bit rate                         : 191 Kbps
Channel(s)                               : 1 channel
Channel positions                        : Front: C
Sampling rate                            : 48.0 KHz
Compression mode                         : Lossy
Delay relative to video                  : 83ms
Stream size                              : 113 MiB (4%)
Language                                 : English
Encoded date                             : UTC 2013-04-07 13:19:17
Tagged date                              : UTC 2013-04-07 13:19:54

Enjoy...

Requested by varuneric 

Coming soon: Quiz Show, The Dark Crystal, Maximum Conviction and more..		
Dial M for Murder 1954 720p BRRip x264 MP4 AAC-CC/Sample/Sample.mp4 24.421 MB
Dial M for Murder 1954 720p BRRip x264 MP4 AAC-CC/Screens-Info/Dial M for Murder 1954 720p BRRip x264 MP4 AAC-CC.mp4_snapshot_00.57.29.png 1.557 MB
Dial M for Murder 1954 720p BRRip x264 MP4 AAC-CC/Screens-Info/Dial M for Murder 1954 720p BRRip x264 MP4 AAC-CC.mp4_snapshot_00.17.16.png 1.454 MB
Gathering some info...

Register and log in Isohunt and see no captcha anymore!

4000 symbols left
Hash 8325181a118d299d4f34e931bc2a6b896682bd47

Related torrents for "Dial M for Murder 1954 720p BRRip x264 MP4 AAC-CC"

Torrent search:

x264 hd 1954 bd