imdb
rating

6.1
Maniac

Maniac (2012)

Crime, Horror, Mystery, Thriller

Full description
quality   telesync dvdrip x264 hd bd fullhd

Maniac.2012.BRRip XViD juggs

Size 742.691 MB   744 seeders     Added 2013-04-27 03:16:36

Stream torrent
Starting‥ You need BitLord! Get it from 1BitLord.com
To download or stream you need BitLord. Visit them at BitLord.com
Source : EPHEMERiD (Thanks)
 
http://www.imdb.com/title/tt2103217/

Format                                   : AVI
Format/Info                              : Audio Video Interleave
File size                                : 701 MiB
Duration                                 : 1h 28mn
Overall bit rate                         : 1 103 Kbps
Writing library                          : VirtualDub build 32842/release

Video
ID                                       : 0
Format                                   : MPEG-4 Visual
Format profile                           : Advanced Simple@L5
Format settings, BVOP                    : 2
Format settings, QPel                    : No
Format settings, GMC                     : No warppoints
Format settings, Matrix                  : Default (H.263)
Muxing mode                              : Packed bitstream
Codec ID                                 : XVID
Codec ID/Hint                            : XviD
Duration                                 : 1h 28mn
Bit rate                                 : 965 Kbps
Width                                    : 640 pixels
Height                                   : 272 pixels
Display aspect ratio                     : 2.35:1
Frame rate                               : 24.000 fps
Color space                              : YUV
Chroma subsampling                       : 4:2:0
Bit depth                                : 8 bits
Scan type                                : Progressive
Compression mode                         : Lossy
Bits/(Pixel*Frame)                       : 0.231
Stream size                              : 613 MiB (88%)
Writing library                          : XviD 1.2.0.dev47 (UTC 2006-11-01)

Audio
ID                                       : 1
Format                                   : MPEG Audio
Format version                           : Version 1
Format profile                           : Layer 3
Mode                                     : Joint stereo
Codec ID                                 : 55
Codec ID/Hint                            : MP3
Duration                                 : 1h 28mn
Bit rate mode                            : Constant
Bit rate                                 : 128 Kbps
Channel(s)                               : 2 channels
Sampling rate                            : 44.1 KHz
Compression mode                         : Lossy
Stream size                              : 81.3 MiB (12%)
Alignment                                : Split accross interleaves
Interleave, duration                     : 42 ms (1.00 video frame)
Interleave, preload duration             : 500 ms
Writing library                          : LAME3.98.2

Plot
The owner of a mannequin shop develops a dangerous obsession with a young artist.
 
image 
image 
image		
Maniac.2012.BRRip XViD juggs/Maniac.2012.BRRip XViD juggs.avi 734.79 MB
Maniac.2012.BRRip XViD juggs/Torrent Downloaded From ExtraTorrent.com.txt 339 B
Maniac.2012.BRRip XViD juggs/sample.avi 7.901 MB
Gathering some info...

Register and log in Isohunt and see no captcha anymore!

4000 symbols left
Hash a14e812d2e83ce2a4135203472016e2834118248

Related torrents for "Maniac.2012.BRRip XViD juggs"

Torrent search:

2012 bd