imdb
rating

7.5
The Body

The Body (2012)

Mystery, Thriller

Full description
quality   hdtv dvdrip

Errors of.the.Human Body.2012.WEBRip XViD juggs

Size 743.967 MB   0 seeders     Added 2013-04-27 08:03:34

Stream torrent
Starting‥ You need BitLord! Get it from BitLord.com
To download or stream you need BitLord. Visit them at BitLord.com
Source : CtrlHD(Thanks)
 
http://www.imdb.com/title/tt1835955

Format                                   : AVI
Format/Info                              : Audio Video Interleave
File size                                : 699 MiB
Duration                                 : 1h 42mn
Overall bit rate                         : 958 Kbps
Writing library                          : VirtualDub build 32842/release

Video
ID                                       : 0
Format                                   : MPEG-4 Visual
Format profile                           : Advanced Simple@L5
Format settings, BVOP                    : 2
Format settings, QPel                    : No
Format settings, GMC                     : No warppoints
Format settings, Matrix                  : Default (H.263)
Muxing mode                              : Packed bitstream
Codec ID                                 : XVID
Codec ID/Hint                            : XviD
Duration                                 : 1h 42mn
Bit rate                                 : 821 Kbps
Width                                    : 640 pixels
Height                                   : 336 pixels
Display aspect ratio                     : 1.905
Frame rate                               : 23.976 fps
Color space                              : YUV
Chroma subsampling                       : 4:2:0
Bit depth                                : 8 bits
Scan type                                : Progressive
Compression mode                         : Lossy
Bits/(Pixel*Frame)                       : 0.159
Stream size                              : 599 MiB (86%)
Writing library                          : XviD 1.2.0.dev47 (UTC 2006-11-01)

Audio
ID                                       : 1
Format                                   : MPEG Audio
Format version                           : Version 1
Format profile                           : Layer 3
Mode                                     : Joint stereo
Mode extension                           : MS Stereo
Codec ID                                 : 55
Codec ID/Hint                            : MP3
Duration                                 : 1h 42mn
Bit rate mode                            : Constant
Bit rate                                 : 128 Kbps
Channel(s)                               : 2 channels
Sampling rate                            : 44.1 KHz
Compression mode                         : Lossy
Stream size                              : 93.4 MiB (13%)
Alignment                                : Split accross interleaves
Interleave, duration                     : 42 ms (1.00 video frame)
Interleave, preload duration             : 500 ms
Writing library                          : LAME3.98.2

Plot
When a potentially lethal virus is created within his new lab, Dr Geoff Burton is shocked to discover he is not only the unwitting cause, but also its first victim. 

 
image 
image 
image		
Errors of.the.Human Body.2012.WEBRip XViD juggs/Errors.of.the.Human.Body.2012.WEBRip XViD juggs.avi 733.147 MB
Errors of.the.Human Body.2012.WEBRip XViD juggs/Torrent Downloaded From ExtraTorrent.com.txt 339 B
Errors of.the.Human Body.2012.WEBRip XViD juggs/sample.avi 10.82 MB
Gathering some info...

Register and log in Isohunt and see no captcha anymore!

4000 symbols left
Hash 6bba5be7c8c054013262cb98bf57991c85bceed7

Related torrents for "Errors of.the.Human Body.2012.WEBRip XViD juggs"

Torrent search:

2012 web-rip