imdb
rating

7.3
Iron Man 3

Iron Man 3 (2013)

Action, Adventure, Science Fiction

Full description

Iron Man 3 2013 CAMRip XviD AC3 -TODE

Size 733.308 MB   0 seeders     Added 2013-04-27 22:31:51

Stream torrent
Starting‥ You need BitLord! Get it from BitLord.com
To download or stream you need BitLord. Visit them at BitLord.com
--------------------------------------------

Format : AVI
Format/Info : Audio Video Interleave
File size : 699 MiB
Duration : 1h 57mn
Overall bit rate : 829 Kbps
Writing application : Lavf54.59.103

Video
ID : 0
Format : MPEG-4 Visual
Format profile : Simple@L3
Format settings, BVOP : No
Format settings, QPel : No
Format settings, GMC : No warppoints
Format settings, Matrix : Default (H.263)
Codec ID : XVID
Codec ID/Hint : XviD
Duration : 1h 57mn
Bit rate : 755 Kbps
Width : 640 pixels
Height : 272 pixels
Display aspect ratio : 2.35:1
Frame rate : 25.000 fps
Color space : YUV
Chroma subsampling : 4:2:0
Bit depth : 8 bits
Scan type : Progressive
Compression mode : Lossy
Bits/(Pixel*Frame) : 0.173
Stream size : 636 MiB (91%)
Writing library : XviD 64

Audio
ID : 1
Format : AC-3
Format/Info : Audio Coding 3
Mode extension : CM (complete main)
Format settings, Endianness : Big
Codec ID : 2000
Duration : 1h 57mn
Bit rate mode : Constant
Bit rate : 64.0 Kbps
Channel(s) : 2 channels
Channel positions : Front: L R
Sampling rate : 48.0 KHz
Bit depth : 16 bits
Compression mode : Lossy
Stream size : 54.0 MiB (8%)
Alignment : Aligned on interleaves
Interleave, duration : 32 ms (0.80 video frame)

--------------------------------------------

More at   
http://publichash.com/

--------------------------------------------		
Iron Man 3 2013 CAMRip XviD AC3 -TODE/Iron Man 3 2013 CAMRip XviD AC3 -TODE.avi 733.308 MB
Iron Man 3 2013 CAMRip XviD AC3 -TODE/Torrent downloaded from PublicHash.com.txt 151 B
Gathering some info...

Register and log in Isohunt and see no captcha anymore!

4000 symbols left
Hash 309174c5eab5223f8ca625e83f25bbaf962b1b82

Related torrents for "Iron Man 3 2013 CAMRip XviD AC3 -TODE"

Torrent search:

cam 2013