imdb
rating

7.5
42

42 (2013)

Drama

Full description
quality   dvdrip telesync x264

42 2013 720p HDRip XViD AC3- JnViXd avi

Size 1.101 GB   0 seeders     Added 2013-04-28 01:48:35

Stream torrent
Starting‥ You need BitLord! Get it from BitLord.com
To download or stream you need BitLord. Visit them at BitLord.com
42\r\n\r\nFirst off thanks for sharing the vobs ( unknown ).\r\nVobs themselfs ....YUK,sucked bigtime for a number of reasons :(\r\nThere was alot of cam movement,glares was so bad i needed sunglasses on to encode this.\r\nAR,perspective all shot too pieces,loads of noise,colouring ...i could list more.\r\n\r\nAnyway decided i like a challenge and accept it ....so first of was to rotate the video to a more\r\nlevelled up angle,then used perspective filter to pull the sides and bottom.\r\nFrom there i cropped 95% of all chair shots and borders due to camera movement ...however it does mean \r\nthere is more video missing/cropped.But imho ...better than having chair shots every two mins.\r\n\r\nOnce done it was a case of toning down the glare,changing the contrast and brightness levels before \r\ntweaking the colouring and the smoothing the video noise out.\r\n\r\nFinally resized the video to a better res :)\r\nWill say....yes there is a fair bit of video cropped.....yes there is parts the AR is off ....yes there is \r\nparts the angle is still off.\r\nBasically the movement was that bad it would take a 1000\'s cuts and different rotated to fix 100% and source \r\njust isn\'t worth that effort.\r\n\r\nAudio cleaned up in Adobe and resave and remuxed.\r\nRemoved most of the noise and got the EQ balanced alot better ...couldn\'t remove the tapping/clicking sound thats at\r\nthe start,but that goes eventually and is not there throughout the whole film ;-)\r\n\r\n\r\nVideo\r\nID                               : 0\r\nFormat                           : AVI\r\nFormat settings, BVOP            : 2\r\nFormat settings, QPel            : No\r\nFormat settings, GMC             : No warppoints\r\nFormat settings, Matrix          : Default (MPEG)\r\nMuxing mode                      : Packed bitstream\r\nCodec ID                         : XVID\r\nCodec ID/Hint                    : XviD\r\nDuration                         : 1h 40mn\r\nBit rate                         : 1 824 Kbps\r\nWidth                            : 720 pixels\r\nHeight                           : 288 pixels\r\nDisplay aspect ratio             : 2.500\r\nFrame rate                       : 29.970 fps\r\nColor space                      : YUV\r\nChroma subsampling               : 4:2:0\r\nBit depth                        : 8 bits\r\nScan type                        : Progressive\r\nCompression mode                 : Lossy\r\nBits/(Pixel*Frame)               : 0.293\r\nStream size                      : 1.29 GiB\r\nWriting library                  : XviD 64\r\n\r\nAudio\r\nID                               : 1\r\nFormat                           : AC-3\r\nFormat version                   : Version 1\r\nFormat profile                   : Layer 3\r\nMode                             : Joint stereo\r\nMode extension                   : MS Stereo\r\nCodec ID                         : 55\r\nCodec ID/Hint                    : MP3\r\nDuration                         : 1h 40mn\r\nBit rate mode                    : Constant\r\nBit rate                         : 128 Kbps\r\nChannel(s)                       : 2 channels\r\nSampling rate                    : 44.1 KHz\r\nCompression mode                 : Lossy\r\nStream size                      : 92.3 MiB (7%)\r\nAlignment                        : Split accross interleaves\r\nInterleave, duration             : 33 ms (1.00 video frame)\r\nInterleave, preload duration     : 500 ms\r\n\r\n\r\n\r\nScreenies\r\n\r\nimage\r\n
42 2013 720p HDRip XViD AC3- JnViXd .avi 1.101 GB
Gathering some info...

Register and log in Isohunt and see no captcha anymore!

4000 symbols left
Hash e3162502b3d65938bdaf80bac8544257ced57a37

Related torrents for "42 2013 720p HDRip XViD AC3- JnViXd avi"

Torrent search:

hd 2013