imdb
rating

7.8
Zorba the Greek

Zorba the Greek (1964)

Drama

Full description
quality   dvdr dvdrip x264 hd bd h264 fullhd

Zorba The Greek [1964] 720p BRRip H264 AC3 - CODY

Size 2.563 GB   0 seeders     Added 2013-04-28 04:16:37

Stream torrent
Starting‥ You need BitLord! Get it from BitLord.com
To download or stream you need BitLord. Visit them at BitLord.com
General
Complete name                            : Zorba The Greek [1964] 720p BRRip H264 AC3 - CODY.mp4
Format                                   : MPEG-4
Format profile                           : Base Media
Codec ID                                 : isom
File size                                : 2.39 GiB
Duration                                 : 2h 22mn
Overall bit rate mode                    : Variable
Overall bit rate                         : 2 403 Kbps
Encoded date                             : UTC 2012-10-20 13:17:55

Video
ID                                       : 1
Format                                   : AVC
Format/Info                              : Advanced Video Codec
Format profile                           : High@L4.1
Format settings, CABAC                   : Yes
Format settings, ReFrames                : 5 frames
Codec ID                                 : avc1
Codec ID/Info                            : Advanced Video Coding
Duration                                 : 2h 22mn
Bit rate mode                            : Variable
Bit rate                                 : 2 080 Kbps
Maximum bit rate                         : 20.0 Mbps
Width                                    : 1 200 pixels
Height                                   : 720 pixels
Display aspect ratio                     : 1.667
Frame rate mode                          : Constant
Frame rate                               : 23.976 fps
Color space                              : YUV
Chroma subsampling                       : 4:2:0
Bit depth                                : 8 bits
Scan type                                : Progressive
Bits/(Pixel*Frame)                       : 0.100
Stream size                              : 2.07 GiB (87%)
Writing library                          : x264 core 125 r2208 d9d2288
Encoding settings                        : rc=2pass
Color primaries                          : Generic film

Audio
ID                                       : 2
Format                                   : AC-3
Format/Info                              : Audio Coding 3
Mode extension                           : CM (complete main)
Codec ID                                 : ac-3
Duration                                 : 2h 22mn
Bit rate mode                            : Constant
Bit rate                                 : 320 Kbps
Channel(s)                               : 1 channel
Channel positions                        : Front: C
Sampling rate                            : 48.0 KHz
Bit depth                                : 16 bits
Compression mode                         : Lossy
Stream size                              : 325 MiB (13%)

Audio language                           : English, Greek [some parts]

IMDB link:                                 http://www.imdb.com/title/tt0057831/

Subtitles included                       : Romanian

Please seed at least 1,5:1 . This way this torrent has a chance to survive !

Thanks . Enjoy !!		
		
Zorba The Greek [1964] 720p BRRip H264 AC3 - CODY/Cover.jpg 126.481 KB
Zorba The Greek [1964] 720p BRRip H264 AC3 - CODY/Info_by_Cody.txt 7.622 KB
Zorba The Greek [1964] 720p BRRip H264 AC3 - CODY/Torrent downloaded from Demonoid.me.txt 46 B
Gathering some info...

Register and log in Isohunt and see no captcha anymore!

4000 symbols left
Hash fdf4fee80851c45a856696f59764725b68a67447

Related torrents for "Zorba The Greek [1964] 720p BRRip H264 AC3 - CODY"

Torrent search:

h264 1964 hd bd