imdb
rating

7.2
The Dark Crystal

The Dark Crystal (1982)

Fantasy

Full description
quality   dvdrip dvdr x264 fullhd bd hd

The Dark Crystal 1982 720p BRRip x264 MP4 AAC-CC

Size 2.947 GB   1 seeders     Added 2013-04-28 05:31:38

Stream torrent
Starting‥ You need BitLord! Get it from 1BitLord.com
To download or stream you need BitLord. Visit them at BitLord.com
 http://www.imdb.com/title/tt0083791/

Source: The Dark Crystal (1982) 1080p DTS multisub HighCode Thanks m8!

Subs: Arabic, Bulgarian, Czech, Danish, Dutch, English, Finnish, French, Greek, Hungarian, Norwegian, Persian, Portuguese, Romanian, Russian, Servian, Spanish, Swedish, Turkish.

Sample and Screens included.

General
Complete name                            : The Dark Crystal 1982 720p BRRip x264 MP4 AAC-CC.mp4
Format                                   : MPEG-4
Format profile                           : Base Media
Codec ID                                 : isom
File size                                : 2.71 GiB
Duration                                 : 1h 33mn
Overall bit rate mode                    : Variable
Overall bit rate                         : 4 170 Kbps
Encoded date                             : UTC 2013-04-19 05:08:25
Tagged date                              : UTC 2013-04-19 05:08:25
Writing application                      : Yamb 2.1.0.0 

Video
ID                                       : 1
Format                                   : AVC
Format/Info                              : Advanced Video Codec
Format profile                           : High@L4.1
Format settings, CABAC                   : Yes
Format settings, ReFrames                : 5 frames
Codec ID                                 : avc1
Codec ID/Info                            : Advanced Video Coding
Duration                                 : 1h 33mn
Bit rate                                 : 3 800 Kbps
Maximum bit rate                         : 26.5 Mbps
Width                                    : 1 280 pixels
Height                                   : 544 pixels
Display aspect ratio                     : 2.35:1
Frame rate mode                          : Variable
Frame rate                               : 23.976 fps
Minimum frame rate                       : 18.868 fps
Maximum frame rate                       : 24.390 fps
Color space                              : YUV
Chroma subsampling                       : 4:2:0
Bit depth                                : 8 bits
Scan type                                : Progressive
Bits/(Pixel*Frame)                       : 0.228
Stream size                              : 2.46 GiB (91%)
Writing library                          : x264 core 112
Encoding settings                        : cabac=1 / ref=5 / deblock=1:0:0 / analyse=0x3:0x113 / me=hex / subme=7 / psy=1 / psy_rd=1.00:0.00 / mixed_ref=1 / me_range=16 / chroma_me=1 / trellis=1 / 8x8dct=1 / cqm=0 / deadzone=21,11 / fast_pskip=1 / chroma_qp_offset=-2 / threads=3 / sliced_threads=0 / nr=0 / decimate=1 / interlaced=0 / constrained_intra=0 / bframes=5 / b_pyramid=2 / b_adapt=2 / b_bias=0 / direct=1 / weightb=1 / open_gop=0 / weightp=2 / keyint=240 / keyint_min=24 / scenecut=40 / intra_refresh=0 / rc_lookahead=50 / rc=abr / mbtree=1 / bitrate=3800 / ratetol=1.0 / qcomp=0.60 / qpmin=3 / qpmax=51 / qpstep=4 / ip_ratio=1.40 / aq=1:1.00
Encoded date                             : UTC 2013-04-19 21:27:23
Tagged date                              : UTC 2013-04-19 05:11:47
Color primaries                          : BT.709
Transfer characteristics                 : BT.709
Matrix coefficients                      : BT.709

Audio
ID                                       : 2
Format                                   : AAC
Format/Info                              : Advanced Audio Codec
Format profile                           : LC
Codec ID                                 : 40
Duration                                 : 1h 33mn
Bit rate mode                            : Variable
Bit rate                                 : 384 Kbps
Maximum bit rate                         : 601 Kbps
Channel(s)                               : 6 channels
Channel positions                        : Front: L C R, Side: L R, LFE
Sampling rate                            : 48.0 KHz
Compression mode                         : Lossy
Delay relative to video                  : 83ms
Stream size                              : 256 MiB (9%)
Language                                 : English
Encoded date                             : UTC 2013-04-19 05:11:01
Tagged date                              : UTC 2013-04-19 05:11:47

Enjoy...

Requested by SammyR

Coming soon: Quiz Show, Maximum Conviction, Mortal Kombat Annihilation and more...		
The Dark Crystal 1982 720p BRRip x264 MP4 AAC-CC/Sample/Sample.mp4 26.504 MB
The Dark Crystal 1982 720p BRRip x264 MP4 AAC-CC/Screens-Info/The Dark Crystal 1982 720p BRRip x264 MP4 AAC-CC.mp4_snapshot_00.19.06.png 1.439 MB
The Dark Crystal 1982 720p BRRip x264 MP4 AAC-CC/Screens-Info/The Dark Crystal 1982 720p BRRip x264 MP4 AAC-CC.mp4_snapshot_01.15.21.png 1.312 MB
Gathering some info...

Register and log in Isohunt and see no captcha anymore!

4000 symbols left
Hash 4af8f1044bd58201dda284b91820ff14ac6a4256

Related torrents for "The Dark Crystal 1982 720p BRRip x264 MP4 AAC-CC"

Torrent search:

1982 x264 hd bd