Crossroad.2012.WEBRip XViD juggs

Size 749.159 MB   0 seeders     Added 2013-04-28 06:44:50

Stream torrent
Starting‥ You need BitLord! Get it from BitLord.com
To download or stream you need BitLord. Visit them at BitLord.com
Source : WEBiOS(Thanks)
 
http://www.imdb.com/title/tt2008486/

Format                                   : AVI
Format/Info                              : Audio Video Interleave
File size                                : 699 MiB
Duration                                 : 1h 34mn
Overall bit rate                         : 1 034 Kbps
Writing library                          : VirtualDub build 32842/release

Video
ID                                       : 0
Format                                   : MPEG-4 Visual
Format profile                           : Advanced Simple@L5
Format settings, BVOP                    : 2
Format settings, QPel                    : No
Format settings, GMC                     : No warppoints
Format settings, Matrix                  : Default (H.263)
Muxing mode                              : Packed bitstream
Codec ID                                 : XVID
Codec ID/Hint                            : XviD
Duration                                 : 1h 34mn
Bit rate                                 : 896 Kbps
Width                                    : 640 pixels
Height                                   : 272 pixels
Display aspect ratio                     : 2.35:1
Frame rate                               : 23.976 fps
Color space                              : YUV
Chroma subsampling                       : 4:2:0
Bit depth                                : 8 bits
Scan type                                : Progressive
Compression mode                         : Lossy
Bits/(Pixel*Frame)                       : 0.215
Stream size                              : 606 MiB (87%)
Writing library                          : XviD 1.2.0.dev47 (UTC 2006-11-01)

Audio
ID                                       : 1
Format                                   : MPEG Audio
Format version                           : Version 1
Format profile                           : Layer 3
Codec ID                                 : 55
Codec ID/Hint                            : MP3
Duration                                 : 1h 34mn
Bit rate mode                            : Constant
Bit rate                                 : 128 Kbps
Channel(s)                               : 2 channels
Sampling rate                            : 44.1 KHz
Compression mode                         : Lossy
Stream size                              : 86.5 MiB (12%)
Alignment                                : Split accross interleaves
Interleave, duration                     : 42 ms (1.00 video frame)
Interleave, preload duration             : 500 ms
Writing library                          : LAME3.99r
Encoding settings                        : -m s -V 4 -q 3 -lowpass 17 -b 128

Plot
Fueled by revenge, Michael sets up a meeting with Clef Robie, the man who murdered his wife and child 6 years ago. His plans of killing him come to a standstill when two gunmen rob the diner. Michael takes matters into his own hands when he shoots them and holds the entire diner hostage until he kills his target.
 
image 
image 
image		
Crossroad.2012.WEBRip XViD juggs/Crossroad.2012.WEBRip XViD juggs.avi 732.668 MB
Crossroad.2012.WEBRip XViD juggs/Torrent Downloaded From ExtraTorrent.com.txt 339 B
Crossroad.2012.WEBRip XViD juggs/sample.avi 16.49 MB
Gathering some info...

Register and log in Isohunt and see no captcha anymore!

4000 symbols left
Hash 2f2e30d214b4fa85f0cdc1e255b7f89beaa52026