imdb
rating

9.5
Game of Thrones

Game of Thrones (2011)

Sci-Fi & Fantasy, Action & Adventure, Drama

Full description

S03E05 Game Of Thrones (1920x1080) [Phr0stY].mkv

Size 2.288 GB   3 seeders     Added 2013-04-30 06:31:38

Stream torrent
Starting‥ You need BitLord! Get it from BitLord.com
To download or stream you need BitLord. Visit them at BitLord.com
Please Seed And Enjoy
Complete name                            : D:VideosHBOGame Of Thrones Season 3 (1920x1080) [Phr0stY]S03E05 Game Of Thrones (1920x1080) [Phr0stY].mkv
Format                                   : Matroska
Format version                           : Version 4 / Version 2
File size                                : 2.13 GiB
Duration                                 : 57mn 25s
Overall bit rate                         : 5312 Kbps
Encoded date                             : UTC 2013-04-29 21:11:02
Writing application                      : mkvmerge v6.2.0 (Promised Land) built on Apr 28 2013 12:22:01
Writing library                          : libebml v1.3.0 + libmatroska v1.4.0
Video
ID                                       : 1
Format                                   : AVC
Format/Info                              : Advanced Video Codec
Format profile                           : High@L4.0
Format settings, CABAC                   : Yes
Format settings, ReFrames                : 4 frames
Codec ID                                 : V_MPEG4/ISO/AVC
Duration                                 : 57mn 25s
Bit rate                                 : 4822 Kbps
Width                                    : 1920 pixels
Height                                   : 1080 pixels
Display aspect ratio                     : 16:9
Frame rate mode                          : Constant
Frame rate                               : 23.976 fps
Color space                              : YUV
Chroma subsampling                       : 4:2:0
Bit depth                                : 8 bits
Scan type                                : Progressive
Bits/(Pixel*Frame)                       : 0.097
Stream size                              : 1.93 GiB (91%)
Default                                  : Yes
Forced                                   : No
Color primaries                          : BT.709
Transfer characteristics                 : BT.709
Matrix coefficients                      : BT.709
Audio
ID                                       : 2
Format                                   : AC-3
Format/Info                              : Audio Coding 3
Mode extension                           : CM (complete main)
Format settings, Endianness              : Big
Codec ID                                 : A_AC3
Duration                                 : 57mn 25s
Bit rate mode                            : Constant
Bit rate                                 : 384 Kbps
Channel(s)                               : 6 channels
Channel positions                        : Front: L C R, Side: L R, LFE
Sampling rate                            : 48.0 KHz
Bit depth                                : 16 bits
Compression mode                         : Lossy
Stream size                              : 158 MiB (7%)
Language                                 : English
Default                                  : Yes
Forced                                   : No
S03E05 Game Of Thrones (1920x1080) [Phr0stY].mkv 2.288 GB
Gathering some info...

Register and log in Isohunt and see no captcha anymore!

4000 symbols left
Hash 7b9c6b771a003e5628481b4ab9b8e86b4f33744e

Related torrents for "S03E05 Game Of Thrones (1920x1080) [Phr0stY].mkv"

Torrent search:

season 03 episode 05