Season 25: Oprah Behind the Scenes

Season 25: Oprah Behind the Scenes (2014)

Full description

Season 02

Size 13.81 GB   0 seeders     Added 2013-04-30 12:23:38

Stream torrent
Starting‥ You need BitLord! Get it from BitLord.com
To download or stream you need BitLord. Visit them at BitLord.com
I decided I wanted to do some High Quality DVD-Rips of the first 4 seasons of Futurama (which were NON-HD) for myself and to share with everyone else who loves this show and is sad to see it go!!!
These videos are NOT deinterlaced!.....I was not satisfied with the quality of any of the encodes I did using the deinterlace option.
Mediainfo:
General
Complete name                            : F:FuturamaSeason 02Futurama - S02E01 - (HQ-DVD) - I, Second That Emotion.mkv
Format                                   : Matroska
Format version                           : Version 1
File size                                : 693 MiB
Duration                                 : 22mn 32s
Overall bit rate                         : 4 297 Kbps
Encoded date                             : UTC 2013-04-23 11:31:52
Writing library                          : WonderShare Matroska Muxer
Video
ID                                       : 1
Format                                   : AVC
Format/Info                              : Advanced Video Codec
Format profile                           : Baseline@L3.0
Format settings, CABAC                   : No
Format settings, ReFrames                : 1 frame
Format settings, GOP                     : M=1, N=25
Codec ID                                 : V_MPEG4/ISO/AVC
Duration                                 : 22mn 32s
Bit rate                                 : 4 019 Kbps
Width                                    : 720 pixels
Height                                   : 480 pixels
Display aspect ratio                     : 3:2
Frame rate mode                          : Constant
Frame rate                               : 29.970 fps
Original frame rate                      : 29.000 fps
Standard                                 : NTSC
Color space                              : YUV
Chroma subsampling                       : 4:2:0
Bit depth                                : 8 bits
Scan type                                : Progressive
Bits/(Pixel*Frame)                       : 0.388
Stream size                              : 648 MiB (94%)
Default                                  : Yes
Forced                                   : No
Audio
ID                                       : 2
Format                                   : AC-3
Format/Info                              : Audio Coding 3
Mode extension                           : CM (complete main)
Format settings, Endianness              : Big
Codec ID                                 : A_AC3
Duration                                 : 22mn 32s
Bit rate mode                            : Constant
Bit rate                                 : 192 Kbps
Channel(s)                               : 2 channels
Channel positions                        : Front: L R
Sampling rate                            : 48.0 KHz
Bit depth                                : 16 bits
Compression mode                         : Lossy
Delay relative to video                  : 21ms
Stream size                              : 31.0 MiB (4%)
Default                                  : Yes
Forced                                   : No
Again, this was my first time with all this stuff but I have an open ear to any tips or suggestions from anyone toward future encoding, or torrent uploading.
I will be seeding for at least a month straight!
Thanks for checking this out!		
Season 02/Futurama - S02E10 - (HQ-DVD) - A Clone of My Own.mkv 737.949 MB
Season 02/Futurama - S02E14 - (HQ-DVD) - Mother's Day.mkv 737.273 MB
Season 02/Futurama - S02E04 - (HQ-DVD) - Xmas Story.mkv 731.914 MB
Gathering some info...

Register and log in Isohunt and see no captcha anymore!

4000 symbols left
Hash 26bc9c5992e4723def0619f24d680d2499c8f0f4

Related torrents for "Season 02"

Torrent search:

season 02