Seasons

Seasons (1993)

Sports

Full description

Season 03

Size 15.791 GB   0 seeders     Added 2013-04-30 12:24:34

Stream torrent
Starting‥ You need BitLord! Get it from BitLord.com
To download or stream you need BitLord. Visit them at BitLord.com
Hello everyone!
First off let me say this is my first venture into video encoding and also uploading my own torrent.
Secondly, I was very disheartened to see that my favorite cartoon of all time, Futurama was once again canceled!
I decided I wanted to do some High Quality DVD-Rips of the first 4 seasons of Futurama (which were NON-HD) for myself and to share with everyone else who loves this show and is sad to see it go!!!
These videos are NOT deinterlaced!.....I was not satisfied with the quality of any of the encodes I did using the deinterlace option.
Mediainfo:
General
Complete name                            : F:FuturamaSeason 03Futurama - S03E01 - (HQ-DVD) - Amazon Women in the Mood.mkv
Format                                   : Matroska
Format version                           : Version 1
File size                                : 690 MiB
Duration                                 : 22mn 35s
Overall bit rate                         : 4 270 Kbps
Encoded date                             : UTC 2013-04-23 02:16:27
Writing library                          : WonderShare Matroska Muxer
Video
ID                                       : 1
Format                                   : AVC
Format/Info                              : Advanced Video Codec
Format profile                           : Baseline@L3.0
Format settings, CABAC                   : No
Format settings, ReFrames                : 1 frame
Format settings, GOP                     : M=1, N=25
Codec ID                                 : V_MPEG4/ISO/AVC
Duration                                 : 22mn 35s
Bit rate                                 : 3 993 Kbps
Width                                    : 720 pixels
Height                                   : 480 pixels
Display aspect ratio                     : 3:2
Frame rate mode                          : Constant
Frame rate                               : 29.970 fps
Original frame rate                      : 29.000 fps
Standard                                 : NTSC
Color space                              : YUV
Chroma subsampling                       : 4:2:0
Bit depth                                : 8 bits
Scan type                                : Progressive
Bits/(Pixel*Frame)                       : 0.386
Stream size                              : 645 MiB (94%)
Default                                  : Yes
Forced                                   : No
Audio
ID                                       : 2
Format                                   : AC-3
Format/Info                              : Audio Coding 3
Mode extension                           : CM (complete main)
Format settings, Endianness              : Big
Codec ID                                 : A_AC3
Duration                                 : 22mn 35s
Bit rate mode                            : Constant
Bit rate                                 : 192 Kbps
Channel(s)                               : 2 channels
Channel positions                        : Front: L R
Sampling rate                            : 48.0 KHz
Bit depth                                : 16 bits
Compression mode                         : Lossy
Delay relative to video                  : 21ms
Stream size                              : 31.0 MiB (4%)
Default                                  : Yes
Forced                                   : No
Again, this was my first time with all this stuff but I have an open ear to any tips or suggestions from anyone toward future encoding, or torrent uploading.
I will be seeding for at least a month straight!
Thanks for checking this out!		
Season 03/Futurama - S03E18 - (HQ-DVD) - Anthology of Interest II.mkv 730.866 MB
Season 03/Futurama - S03E19 - (HQ-DVD) - Roswell that Ends Well.mkv 729.527 MB
Season 03/Futurama - S03E22 - (HQ-DVD) - The 30% Iron Chef.mkv 729.331 MB
Gathering some info...

Register and log in Isohunt and see no captcha anymore!

4000 symbols left
Hash f44a240c598019be243960028f3f98a964fe4cee

Related torrents for "Season 03"

Torrent search:

season 03