Seasons

Seasons (1993)

Sports

Full description

Season 04

Size 13.128 GB   0 seeders     Added 2013-04-30 12:24:35

Stream torrent
Starting‥ You need BitLord! Get it from 1BitLord.com
To download or stream you need BitLord. Visit them at BitLord.com
Hello everyone!
First off let me say this is my first venture into video encoding and also uploading my own torrent.
Secondly, I was very disheartened to see that my favorite cartoon of all time, Futurama was once again canceled!
I decided I wanted to do some High Quality DVD-Rips of the first 4 seasons of Futurama (which were NON-HD) for myself and to share with everyone else who loves this show and is sad to see it go!!!
These videos are NOT deinterlaced!.....I was not satisfied with the quality of any of the encodes I did using the deinterlace option.
Mediainfo:
General
Complete name                            : F:FuturamaSeason 04Futurama - S04E01 - (HQ-DVD) - Kif Gets Knocked Up a Notch.mkv
Format                                   : Matroska
Format version                           : Version 1
File size                                : 691 MiB
Duration                                 : 22mn 34s
Overall bit rate                         : 4 281 Kbps
Encoded date                             : UTC 2013-04-23 13:59:07
Writing library                          : WonderShare Matroska Muxer
Video
ID                                       : 1
Format                                   : AVC
Format/Info                              : Advanced Video Codec
Format profile                           : Baseline@L3.0
Format settings, CABAC                   : No
Format settings, ReFrames                : 1 frame
Codec ID                                 : V_MPEG4/ISO/AVC
Duration                                 : 22mn 34s
Bit rate                                 : 4 004 Kbps
Width                                    : 720 pixels
Height                                   : 480 pixels
Display aspect ratio                     : 3:2
Frame rate mode                          : Constant
Frame rate                               : 29.970 fps
Original frame rate                      : 29.000 fps
Standard                                 : NTSC
Color space                              : YUV
Chroma subsampling                       : 4:2:0
Bit depth                                : 8 bits
Scan type                                : Progressive
Bits/(Pixel*Frame)                       : 0.387
Stream size                              : 646 MiB (94%)
Default                                  : Yes
Forced                                   : No
Audio
ID                                       : 2
Format                                   : AC-3
Format/Info                              : Audio Coding 3
Mode extension                           : CM (complete main)
Format settings, Endianness              : Big
Codec ID                                 : A_AC3
Duration                                 : 22mn 34s
Bit rate mode                            : Constant
Bit rate                                 : 192 Kbps
Channel(s)                               : 2 channels
Channel positions                        : Front: L R
Sampling rate                            : 48.0 KHz
Bit depth                                : 16 bits
Compression mode                         : Lossy
Delay relative to video                  : 21ms
Stream size                              : 31.0 MiB (4%)
Default                                  : Yes
Forced                                   : No
Again, this was my first time with all this stuff but I have an open ear to any tips or suggestions from anyone toward future encoding, or torrent uploading.
I will be seeding for at least a month straight!
Thanks for checking this out!		
Season 04/Futurama - S04E11 - (HQ-DVD) - Where No Fan Has Gone Before.mkv 739.831 MB
Season 04/Futurama - S04E04 - (HQ-DVD) - Less Than Hero.mkv 739.815 MB
Season 04/Futurama - S04E16 - (HQ-DVD) - Three Hundred Big Boys.mkv 736.968 MB
Gathering some info...

Register and log in Isohunt and see no captcha anymore!

4000 symbols left
Hash fcc02266931d71cd7f227cf6fb8a6cb1bc27af3f

Related torrents for "Season 04"

Torrent search:

season 04