imdb
rating

2.6
Hansel & Gretel: Warriors of Witchcraft

Hansel & Gretel: Warriors of Witchcraft (2013)

Horror, Thriller

Full description
quality   bd x264 fullhd hd dvdrip h264

Hansel.and.Gretel.Warriors.of.Witchcraft.2013.BRRip XViD juggs

Size 739.152 MB   161 seeders     Added 2013-04-30 23:31:25

Stream torrent
Starting‥ You need BitLord! Get it from BitLord.com
To download or stream you need BitLord. Visit them at BitLord.com
Source : NYDIC (Thanks)
 
http://www.imdb.com/title/tt2381962/

Format                                   : AVI
Format/Info                              : Audio Video Interleave
File size                                : 698 MiB
Duration                                 : 1h 23mn
Overall bit rate                         : 1 172 Kbps
Writing library                          : VirtualDub build 32842/release

Video
ID                                       : 0
Format                                   : MPEG-4 Visual
Format profile                           : Advanced Simple@L5
Format settings, BVOP                    : 2
Format settings, QPel                    : No
Format settings, GMC                     : No warppoints
Format settings, Matrix                  : Default (H.263)
Muxing mode                              : Packed bitstream
Codec ID                                 : XVID
Codec ID/Hint                            : XviD
Duration                                 : 1h 23mn
Bit rate                                 : 1 034 Kbps
Width                                    : 640 pixels
Height                                   : 352 pixels
Display aspect ratio                     : 16:9
Frame rate                               : 23.976 fps
Color space                              : YUV
Chroma subsampling                       : 4:2:0
Bit depth                                : 8 bits
Scan type                                : Progressive
Compression mode                         : Lossy
Bits/(Pixel*Frame)                       : 0.191
Stream size                              : 616 MiB (88%)
Writing library                          : XviD 1.2.0.dev47 (UTC 2006-11-01)

Audio
ID                                       : 1
Format                                   : MPEG Audio
Format version                           : Version 1
Format profile                           : Layer 3
Codec ID                                 : 55
Codec ID/Hint                            : MP3
Duration                                 : 1h 23mn
Bit rate mode                            : Constant
Bit rate                                 : 128 Kbps
Channel(s)                               : 2 channels
Sampling rate                            : 44.1 KHz
Compression mode                         : Lossy
Stream size                              : 76.2 MiB (11%)
Alignment                                : Split accross interleaves
Interleave, duration                     : 42 ms (1.00 video frame)
Interleave, preload duration             : 500 ms
Writing library                          : LAME3.99r
Encoding settings                        : -m s -V 4 -q 3 -lowpass 17 -b 128
 
image 
image 
image		
Hansel.and.Gretel.Warriors.of.Witchcraft.2013.BRRip XViD juggs/Hansel.and.Gretel.Warriors.of.Witchcraft.2013.BRRip XViD juggs.avi 731.828 MB
Hansel.and.Gretel.Warriors.of.Witchcraft.2013.BRRip XViD juggs/Torrent Downloaded From ExtraTorrent.com.txt 339 B
Hansel.and.Gretel.Warriors.of.Witchcraft.2013.BRRip XViD juggs/sample.avi 7.324 MB
Gathering some info...

Register and log in Isohunt and see no captcha anymore!

4000 symbols left
Hash 882820d91fdb6f1b471aaa02264aa131bbe35429

Related torrents for "Hansel.and.Gretel.Warriors.of.Witchcraft.2013.BRRip XViD juggs"

Torrent search:

bd 2013