imdb
rating

6.5
Pain & Gain

Pain & Gain (2013)

Action, Crime, Thriller

Full description

Pain & Gain (2013) HDRip XviD S4A1 Verified

Size 765.108 MB   0 seeders     Added 2013-05-01 02:25:35

Stream torrent
Starting‥ You need BitLord! Get it from BitLord.com
To download or stream you need BitLord. Visit them at BitLord.com
Format                                   : AVI
Format/Info                              : Audio Video Interleave
File size                                : 704 MiB
Duration                                 : 1h 38mn
Overall bit rate                         : 1 002 Kbps
Writing application                      : FairUse Wizard - http://fairusewizard.com
Writing library                          : The best and REALLY easy backup tool

Video
ID                                       : 0
Format                                   : MPEG-4 Visual
Format profile                           : Advanced Simple@L5
Format settings, BVOP                    : 2
Format settings, QPel                    : No
Format settings, GMC                     : No warppoints
Format settings, Matrix                  : Default (H.263)
Muxing mode                              : Packed bitstream
Codec ID                                 : XVID
Codec ID/Hint                            : XviD
Duration                                 : 1h 38mn
Bit rate                                 : 865 Kbps
Width                                    : 624 pixels
Height                                   : 336 pixels
Display aspect ratio                     : 1.85:1
Frame rate                               : 23.976 fps
Color space                              : YUV
Chroma subsampling                       : 4:2:0
Bit depth                                : 8 bits
Scan type                                : Progressive
Compression mode                         : Lossy
Bits/(Pixel*Frame)                       : 0.172
Stream size                              : 608 MiB (86%)
Writing library                          : XviD 1.2.1 (UTC 2008-12-04)

Audio
ID                                       : 1
Format                                   : MPEG Audio
Format version                           : Version 1
Format profile                           : Layer 3
Mode                                     : Joint stereo
Mode extension                           : MS Stereo
Codec ID                                 : 55
Codec ID/Hint                            : MP3
Duration                                 : 1h 38mn
Bit rate mode                            : Constant
Bit rate                                 : 128 Kbps
Channel(s)                               : 2 channels
Sampling rate                            : 48.0 KHz
Compression mode                         : Lossy
Stream size                              : 89.8 MiB (13%)
Alignment                                : Aligned on interleaves
Interleave, duration                     : 42 ms (1.00 video frame)
Interleave, preload duration             : 504 ms
Writing library                          : LAME3.97 
Encoding settings                        : -m j -V 4 -q 2 -lowpass 17 -b 128

Source: DVD (perfect a/v/sync quality,sample included)
This torrent is not seedbox supported,please seed it
Pain & Gain (2013) HDRip XviD S4A1/Pain & Gain (2013) HDRip XviD S4A1.avi 765.108 MB
Pain & Gain (2013) HDRip XviD S4A1/Torrent Downloaded from limetorrent.txt 50 B
Pain & Gain (2013) HDRip XviD S4A1/tracked_by_h33t_com.txt 23 B
Gathering some info...

Register and log in Isohunt and see no captcha anymore!

4000 symbols left
Hash 5cda55ee642f1a1450756b77adc569cef6c84ce5

Related torrents for "Pain & Gain (2013) HDRip XviD S4A1"

Torrent search:

hd 2013