imdb
rating

6.9
Cop Land

Cop Land (1997)

Action, Crime, Drama

Full description
quality   dvdrip bd x264 hd fullhd h264

Cop Land 1997 BRRip 720p x264 AAC - PRiSTiNE [P2PDL]

Size 742.29 MB   0 seeders     Added 2013-05-01 11:46:34

Stream torrent
Starting‥ You need BitLord! Get it from BitLord.com
10
To download or stream you need BitLord. Visit them at BitLord.com
_________________________  Visit us at _________________________
  
http://p2pdl.com  ____________________________  http://p2pdl.com


Cop Land 1997 BRRip 720p x264 AAC - PRiSTiNE [P2PDL]

Genre: Crime | Drama | Thriller
Plot: The sheriff of a suburban New Jersey community 
populated by New York City policemen slowly discovers 
the town is a front for mob connections and corruption.
Director: James Mangold
Stars: Sylvester Stallone, Harvey Keitel, Ray Liotta
Rated: Rated R for violence, strong language and brief nudity

Info: 
http://www.imdb.com/title/tt0118887/

General
Complete name                  : Cop Land 1997 BRRip 720p x264 AAC - PRiSTiNE.mp4
Format                         : MPEG-4
File size                      : 700 MiB
Duration                       : 1h 56mn
Overall bit rate mode          : Variable
Overall bit rate               : 841 Kbps

Video
Format                         : AVC
Format/Info                    : Advanced Video Codec
Format profile                 : High 10@L4.1
Bit rate                       : 759 Kbps
Width                          : 1 280 pixels
Height                         : 688 pixels
Display aspect ratio           : 1.85:1
Frame rate mode                : Constant
Frame rate                     : 23.976 fps
Color space                    : YUV
Chroma subsampling             : 4:2:0
Bit depth                      : 10 bits
Stream size                    : 631 MiB (90%)
Writing library                : x264 core 130 r2273 b3065e6

Audio
Format                         : AAC
Format/Info                    : Advanced Audio Codec
Bit rate                       : 80.0 Kbps
Channel(s)                     : 2 channels
Channel positions              : Front: L R
Sampling rate                  : 48.0 KHz / 24.0 KHz
Stream size                    : 66.5 MiB (10%)
Language                       : English

Subtitle                       : Yes (English)
Source                         : REMASTERED.DC.720p.BluRay.DTS.x264-PublicHD (Thanks)

Screenshots:
 
image 
image 
image 
image 
image 
image 
image 
image

----------------------------------------------------------------------------------------------------


Encoded using revolutionary 10bit encoding, which enables us to provide you more crispier 
and sharper images at small sizes, just make sure you follow our instructions without a fault.
Recommend to you to use latest version of VLC player. Install K-Lite Codec Pack or shark007 codecs
in case of any kind of problem in playback (For non-VLC Media Player users). Alternatively, install
Core AVC codecs, the fastest decoder that there is coupled with Community Center Codec Pack and play
on Windows Media Player Classic. Check sample to be sure.
Enjoy!

Encoder Notes:Looking For Early Access To Anything You Can Provide DVDScr, R5, DVDR, BluRay, Direct
Audio, Music Releases and Seedboxes. We require dedicated servers, so as to do more 
and fast releases of movies.
If You Got anything to offer please contact us at "prg@hush.com".

Face book Fan Page:   
http://www.fb.me/p2pdl		
Cop Land 1997 BRRip 720p x264 AAC - PRiSTiNE [P2PDL]/Cop Land 1997 BRRip 720p x264 AAC - PRiSTiNE/Cop Land 1997 BRRip 720p x264 AAC - PRiSTiNE.mp4 733.944 MB
Cop Land 1997 BRRip 720p x264 AAC - PRiSTiNE [P2PDL]/Sample.mp4 8.242 MB
Cop Land 1997 BRRip 720p x264 AAC - PRiSTiNE [P2PDL]/Cop Land 1997 BRRip 720p x264 AAC - PRiSTiNE/Cop Land 1997 BRRip 720p x264 AAC - PRiSTiNE.srt 98.02 KB
Gathering some info...

Register and log in Isohunt and see no captcha anymore!

4000 symbols left
Hash 6b54f524dfd06f27c383c40d96713fa8a19d9560

Related torrents for "Cop Land 1997 BRRip 720p x264 AAC - PRiSTiNE [P2PDL]"

Torrent search:

1997 x264 hd bd