Blue

Blue (2012)

Drama

Full description

Red VS Blue (2003-2012) recapstore

Size 1.739 GB   2 seeders     Added 2013-05-01 15:02:35

Stream torrent
Starting‥ You need BitLord! Get it from BitLord.com
10
To download or stream you need BitLord. Visit them at BitLord.com
1.6GB for all ten seasons of Red VS Blue, one of the most successful web series and machinimas of all time. Welcome to the Recapstore.

Please seed to at least a 1.5 ratio!

(Wikipedia) 
Red vs. Blue, often abbreviated as RvB, is a comic science fiction video web series created by Rooster Teeth Productions[2] and distributed through the Internet and on DVD. The story centers on two opposing teams of soldiers fighting a civil war in the middle of a desolate box canyon (Blood Gulch), in a parody of first-person shooter (FPS) games, military life, and science fiction films. Initially intended to be a short series of six to eight episodes, the project quickly and unexpectedly achieved significant popularity following its Internet premiere on April 1, 2003. The fifth season of the original Blood Gulch Chronicles series ended with episode 100, released on June 28, 2007. Three mini-seriesΓÇöOut of Mind, Recovery One, and Relocated ΓÇöand the three-part Recollection trilogy containing the full-length Reconstruction (2008), Recreation (2009) and Revelation (2010) series (Seasons 6-8) have extended the plot. The Project Freelancer saga began with Season 9 (2011) and follows two separate stories: a continuation to the Recollection trilogy and a prequel set before the events of The Blood Gulch Chronicles. The two stories are continued in two further mini-series - MIA and Where There's a Will, There's a Wall - and concluded in Season 10 (2012) which was the show's most recent season. Burnie Burns confirmed in What's Trending that the series will continue with Season 11, though further details and the date for the season premiere have not yet been announced.


Sample mediainfo from S01 The Blood Gultch Chronicles:
Format                                   : MPEG-4
Format profile                           : Base Media / Version 2
Codec ID                                 : mp42
File size                                : 106 MiB
Duration                                 : 1h 16mn
Overall bit rate mode                    : Variable
Overall bit rate                         : 193 Kbps
Encoded date                             : UTC 2012-10-10 18:19:13
Tagged date                              : UTC 2012-10-10 19:11:29
Writing application                      : HandBrake 0.9.8 2012071700
Xtra                                     : WM/MediaClassPrimaryID

Video
ID                                       : 1
Format                                   : AVC
Format/Info                              : Advanced Video Codec
Format profile                           : High@L2.1
Format settings, CABAC                   : Yes
Format settings, ReFrames                : 15 frames
Codec ID                                 : avc1
Codec ID/Info                            : Advanced Video Coding
Duration                                 : 1h 16mn
Bit rate mode                            : Variable
Bit rate                                 : 125 Kbps
Width                                    : 352 pixels
Height                                   : 192 pixels
Display aspect ratio                     : 16:9
Original display aspect ratio            : 16:9
Frame rate mode                          : Variable
Frame rate                               : 29.970 fps
Minimum frame rate                       : 9.990 fps
Maximum frame rate                       : 29.970 fps
Color space                              : YUV
Chroma subsampling                       : 4:2:0
Bit depth                                : 8 bits
Scan type                                : Progressive
Bits/(Pixel*Frame)                       : 0.062
Stream size                              : 68.2 MiB (65%)
Writing library                          : x264 core 120
Encoding settings                        : cabac=1 / ref=16 / deblock=1:2:2 / analyse=0x3:0x133 / me=tesa / subme=10 / psy=1 / psy_rd=1.20:0.20 / mixed_ref=1 / me_range=16 / chroma_me=1 / trellis=2 / 8x8dct=1 / cqm=0 / deadzone=21,11 / fast_pskip=1 / chroma_qp_offset=-3 / threads=6 / sliced_threads=0 / nr=0 / decimate=1 / interlaced=0 / bluray_compat=0 / constrained_intra=0 / bframes=16 / b_pyramid=1 / b_adapt=2 / b_bias=0 / direct=1 / weightb=1 / open_gop=0 / weightp=2 / keyint=300 / keyint_min=30 / scenecut=40 / intra_refresh=0 / rc_lookahead=40 / rc=crf / mbtree=1 / crf=23.0 / qcomp=0.60 / qpmin=3 / qpmax=69 / qpstep=4 / ip_ratio=1.40 / aq=1:2.00
Encoded date                             : UTC 2012-10-10 18:19:13
Tagged date                              : UTC 2012-10-10 19:11:29
Color primaries                          : BT.601 NTSC
Transfer characteristics                 : BT.709
Matrix coefficients                      : BT.601

Audio
ID                                       : 2
Format                                   : AAC
Format/Info                              : Advanced Audio Codec
Format profile                           : LC
Codec ID                                 : 40
Duration                                 : 1h 16mn
Bit rate mode                            : Variable
Bit rate                                 : 64.1 Kbps
Maximum bit rate                         : 121 Kbps
Channel(s)                               : 2 channels
Channel positions                        : Front: L R
Sampling rate                            : 48.0 KHz
Compression mode                         : Lossy
Delay relative to video                  : 133ms
Stream size                              : 35.0 MiB (33%)
Encoded date                             : UTC 2012-10-10 18:19:13
Tagged date                              : UTC 2012-10-10 19:11:27		
Red VS Blue (2003-2012) recapstore/Red vs Blue S10 Project Freelancer Part 2 (2012).mp4 299.726 MB
Red VS Blue (2003-2012) recapstore/Red vs Blue S09 Project Freelancer Part 1 (2011).mp4 209.825 MB
Red VS Blue (2003-2012) recapstore/Red vs Blue S06 Reconstruction (2008).mp4 174.96 MB
Gathering some info...

Register and log in Isohunt and see no captcha anymore!

4000 symbols left
Hash decfcb02b537f3be4fac7e702117b6d7b3168e93

Related torrents for "Red VS Blue (2003-2012) recapstore"

Torrent search:

2012