Duelle.1976.DVDRip.x264.mkv

Size 1.944 GB   0 seeders     Added 2013-05-01 15:28:36

Stream torrent
Starting‥ You need BitLord! Get it from 1BitLord.com
To download or stream you need BitLord. Visit them at BitLord.com
This is part one of what was to be Jacques Rivette's four-part project 'Scenes de la Vie Parallelle'. The idea was to create four different films with a running sub-plot involving a mythical war between goddesses of the Sun and the Moon, fighting for possession of a mysterious jewel. This one was a "film noir" modelled after "The Seventh Victim" (which Rivette screened for the cast before the shooting began) with bits of 'Kiss Me Deadly', 'Lady From Shanghai' and 'Les Dames du Bois de Boulogne' thrown in for good measure. An uncanny mood piece it takes place in a weirdly unpopulated Paris. Jean Weiner (who used to play piano at 'Le Bouef sur le Toit') supplies live piano improvisations here, much in the manner of an accompanist for a silent movie.

_______________________________________


General
Complete name                    : Duelle.1976.DVDRip.x264.mkv
Format                           : Matroska
File size                        : 1.81 GiB
Duration                         : 1h 55mn
Overall bit rate                 : 2 244 Kbps
Writing application              : HandBrake 0.9.8
Writing library                  : libmkv 0.6.5

Video
ID                               : 1
Format                           : AVC
Format/Info                      : Advanced Video Codec
Format profile                   : High@L3.1
Format settings, CABAC           : Yes
Format settings, ReFrames        : 11 frames
Codec ID                         : V_MPEG4/ISO/AVC
Duration                         : 1h 55mn
Bit rate                         : 2 050 Kbps
Width                            : 718 pixels
Height                           : 546 pixels
Display aspect ratio             : 1.870
Frame rate                       : 25.000 fps
Color space                      : YUV
Chroma subsampling               : 4:2:0
Bit depth                        : 8 bits
Scan type                        : Progressive
Bits/(Pixel*Frame)               : 0.209
Stream size                      : 1.62 GiB (89%)
Writing library                  : x264 core 120
Encoding settings                : cabac=1 / ref=11 / deblock=1:-2:-2 / analyse=0x3:0x133 / me=umh / subme=11 / psy=1 / psy_rd=1.00:0.00 / mixed_ref=1 / me_range=32 / chroma_me=1 / trellis=2 / 8x8dct=1 / cqm=0 / deadzone=21,11 / fast_pskip=0 / chroma_qp_offset=-2 / threads=3 / sliced_threads=0 / nr=0 / decimate=1 / interlaced=0 / bluray_compat=0 / constrained_intra=0 / bframes=9 / b_pyramid=2 / b_adapt=2 / b_bias=0 / direct=3 / weightb=1 / open_gop=0 / weightp=2 / keyint=250 / keyint_min=25 / scenecut=40 / intra_refresh=0 / rc_lookahead=50 / rc=abr / mbtree=1 / bitrate=2050 / ratetol=1.0 / qcomp=0.60 / qpmin=3 / qpmax=69 / qpstep=4 / ip_ratio=1.40 / aq=2:1.00
Language                         : English
Color primaries                  : BT.601-6 525, BT.1358 525, BT.1700 NTSC, SMPTE 170M
Transfer characteristics         : BT.709-5, BT.1361
Matrix coefficients              : BT.601-6 525, BT.1358 525, BT.1700 NTSC, SMPTE 170M

Audio
ID                               : 2
Format                           : AC-3
Format/Info                      : Audio Coding 3
Mode extension                   : CM (complete main)
Codec ID                         : A_AC3
Duration                         : 1h 55mn
Bit rate mode                    : Constant
Bit rate                         : 192 Kbps
Channel(s)                       : 2 channels
Channel positions                : Front: L R
Sampling rate                    : 48.0 KHz
Bit depth                        : 16 bits
Compression mode                 : Lossy
Stream size                      : 159 MiB (9%)
Language                         : French

Text #1
ID                               : 3
Format                           : VobSub
Codec ID                         : S_VOBSUB
Codec ID/Info                    : The same subtitle format used on DVDs
Language                         : English
		
Duelle.1976.DVDRip.x264.mkv 1.944 GB
Gathering some info...

Register and log in Isohunt and see no captcha anymore!

4000 symbols left
Hash 54fe46e142d2f0e1ba09f0e43575042e4a59c3f7

Related torrents for "Duelle.1976.DVDRip.x264.mkv"

Torrent search:

dvdrip 1976 x264