imdb
rating

5.4
You May Not Kiss the Bride

You May Not Kiss the Bride (2011)

Comedy, Romance

Full description
quality   dvdrip bd x264 fullhd telesync

You May Not Kiss The Bride 2011 BRRip 720p x264 AAC - PRiSTiNE [P2PDL]

Size 668.02 MB   0 seeders     Added 2013-05-01 16:31:36

Stream torrent
Starting‥ You need BitLord! Get it from BitLord.com
To download or stream you need BitLord. Visit them at BitLord.com
_________________________  Visit us at _________________________
  
http://p2pdl.com  ____________________________  http://p2pdl.com


You May Not Kiss The Bride 2011 BRRip 720p x264 AAC - PRiSTiNE [P2PDL]

Genre: Comedy | Romance
Plot: An unassuming pet photographer is thrown into 
serious action, adventure and romance when he's forced 
to marry a Croatian bride and spend his honeymoon at 
a remote tropical resort where she is kidnapped.
Director: Rob Hedden
Stars: Dave Annable, Katharine McPhee, Rob Schneider
Rated: Rated PG-13 for sexual material and references, some rude humor and violence

Info: 
http://www.imdb.com/title/tt1381418/

General
Complete name                  : You May Not Kiss The Bride 2011 BRRip 720p x264 AAC - PRiSTiNE.mp4
Format                         : MPEG-4
File size                      : 631 MiB
Duration                       : 1h 40mn
Overall bit rate mode          : Variable
Overall bit rate               : 881 Kbps

Video
Format                         : AVC
Format/Info                    : Advanced Video Codec
Format profile                 : High 10@L4.1
Bit rate                       : 799 Kbps
Width                          : 1 280 pixels
Height                         : 720 pixels
Display aspect ratio           : 16:9
Frame rate mode                : Constant
Frame rate                     : 24.000 fps
Bit depth                      : 10 bits
Stream size                    : 572 MiB (91%)
Writing library                : x264 core 130 r2273 b3065e6

Audio
Format                         : AAC
Bit rate mode                  : Variable
Bit rate                       : 79.9 Kbps
Channel(s)                     : 2 channels
Channel positions              : Front: L R
Sampling rate                  : 48.0 KHz / 24.0 KHz
Stream size                    : 57.2 MiB (9%)
Language                       : English

Subtitle                       : No
Source                         : 720p.BluRay.x264-LEVERAGE (Thanks)

Screenshots:
 
image 
image 
image 
image 
image 
image 
image


----------------------------------------------------------------------------------------------------


Encoded using revolutionary 10bit encoding, which enables us to provide you more crispier 
and sharper images at small sizes, just make sure you follow our instructions without a fault.
Recommend to you to use latest version of VLC player. Install K-Lite Codec Pack or shark007 codecs
in case of any kind of problem in playback (For non-VLC Media Player users). Alternatively, install
Core AVC codecs, the fastest decoder that there is coupled with Community Center Codec Pack and play
on Windows Media Player Classic. Check sample to be sure.
Enjoy!

Encoder Notes:Looking For Early Access To Anything You Can Provide DVDScr, R5, DVDR, BluRay, Direct
Audio, Music Releases and Seedboxes. We require dedicated servers, so as to do more 
and fast releases of movies.
If You Got anything to offer please contact us at "prg@hush.com".

Face book Fan Page:   
http://www.fb.me/p2pdl		
You May Not Kiss The Bride 2011 BRRip 720p x264 AAC - PRiSTiNE [P2PDL]/You May Not Kiss The Bride 2011 BRRip 720p x264 AAC - PRiSTiNE/You May Not Kiss The Bride 2011 BRRip 720p x264 AAC - PRiSTiNE.mp4 662.116 MB
You May Not Kiss The Bride 2011 BRRip 720p x264 AAC - PRiSTiNE [P2PDL]/Sample.mp4 5.898 MB
You May Not Kiss The Bride 2011 BRRip 720p x264 AAC - PRiSTiNE [P2PDL]/You May Not Kiss The Bride 2011 BRRip 720p x264 AAC - PRiSTiNE/You May Not Kiss The Bride 2011 BRRip 720p x264 AAC - PRiSTiNE.nfo 5.646 KB
Gathering some info...

Register and log in Isohunt and see no captcha anymore!

4000 symbols left
Hash 61356f7b4a02e454b5cae175fb8c4bd942a9c50d

Related torrents for "You May Not Kiss The Bride 2011 BRRip 720p x264 AAC - PRiSTiNE [P2PDL]"

Torrent search:

x264 hd bd 2011