imdb
rating

5.6
Over the Top

Over the Top (1987)

Action, Drama

Full description
quality   h264 bd dvdrip x264 hd fullhd

Over The Top 1987 1080p BDRip AAC x264-tomcat12

Size 2.864 GB   1 seeders     Added 2013-05-01 22:08:34

Stream torrent
Starting‥ You need BitLord! Get it from 1BitLord.com
To download or stream you need BitLord. Visit them at BitLord.com
The Avengers (2012) + bonus 6 m. [XviD - Italian English Ac3 5.1 - Sub Ita Eng Forced Ita] MIRCrew [TNT Village]INCLUSO BOUNS 6 MINUTI DI INTERVISTE ENG SUB ITA
Titolo originale 	Battleship
Paese di produzione 	Stati Uniti
Anno 	2012
Durata 	131 min.
Genere 	fantascienza, azione
Regia 	Peter Berg
Sceneggiatura 	Erich Hoeber, Jon Hoeber
Casa di produzione 	Universal Pictures, Battleship Delta Productions, Film 44, Hasbro, Stuber Productions
Fotografia 	Tobias A. Schliessler
Effetti speciali 	Industrial Light & Magic
Musiche 	Steve Jablonsky
Scenografia 	Neil Spisak
Taylor Kitsch: Ten. Alex Hopper
Alexander Skarsgård: Stone Hopper
Liam Neeson: Vice Ammiraglio Shane
Brooklyn Decker: Samantha "Sam" Shane
Rihanna: Cora Raikes
Peter MacNicol: Segretario della difesa
Tadanobu Asano: Cap. Nagata
Hamish Linklater: Cal
Josh Pence: Capo Moore
Jesse Plemons: Ordy
Stephen Bishop: Taylor
Doppiatori italiani
Andrea Mete: Ten. Alex Hopper
Alessandro Rossi: Vice Ammiraglio Shane
Myriam Catania: Samantha "Sam" Shane
Domitilla D'Amico: Cora Raikes
Gianfranco Miranda: Cap. Nagata
Nanni Baldini: Cal
Davide Perino: Ordy
Nel 2005 la NASA vara il Progetto Beacon, con l'ambizioso scopo di stabilire un possibile contatto con il più vicino pianeta capace di ospitare la vita, il Pianeta G, dove potrebbe abitare
una razza intelligente. Sette anni dopo, nel 2012, la razza aliena che abita il Pianeta G giunge sulla Terra con una flotta esplorativa, il cui scopo è gettare le basi per una futura
invasione; tuttavia, poiché il loro sistema di comunicazione rimane danneggiato durante l'atterraggio a causa dell'urto con un satellite, gli alieni decidono di servirsi del centro di
comando del Progetto Beacon, situato nelle Hawaii, e per impedire agli umani di ostacolare il piano innalzano un potente campo magnetico tutto attorno alle isole, e schierano tre potenti
navi da guerra a difesa del dispositivo che lo genera, situato su una gigantesca piattaforma oceanica...............  STORYLINE
Based on the classic Hasbro naval combat game, Battleship is the story of an international fleet of ships who come across an alien armada while on Naval war games exercise. An intense
battle is fought on sea, land and air. What do the aliens want?Hidden textGeneral
Complete name                    : F:\The Avengers (2012)\The Avengers (2012).avi
Format                           : AVI
Format/Info                      : Audio Video Interleave
Format profile                   : OpenDML
File size                        : 2.41 GiB
Duration                         : 2h 22mn
Overall bit rate                 : 2 413 Kbps
Writing application              : VirtualDubMod 1.5.10.2 (build 2540/release)
Writing library                  : VirtualDubMod build 2540/release
Video
ID                               : 0
Format                           : MPEG-4 Visual
Format profile                   : Simple@L3
Format settings, BVOP            : Yes
Format settings, QPel            : No
Format settings, GMC             : No warppoints
Format settings, Matrix          : Default (H.263)
Codec ID                         : XVID
Codec ID/Hint                    : XviD
Duration                         : 2h 22mn
Bit rate                         : 1 500 Kbps
Width                            : 720 pixels
Height                           : 400 pixels
Display aspect ratio             : 16:9
Frame rate                       : 23.976 fps
Color space                      : YUV
Chroma subsampling               : 4:2:0
Bit depth                        : 8 bits
Scan type                        : Progressive
Bits/(Pixel*Frame)               : 0.217
Stream size                      : 1.50 GiB (62%)
Audio #1
ID                               : 1
Format                           : AC-3
Format/Info                      : Audio Coding 3
Mode extension                   : CM (complete main)
Codec ID                         : 2000
Duration                         : 2h 22mn
Bit rate mode                    : Constant
Bit rate                         : 448 Kbps
Channel(s)                       : 6 channels
Channel positions                : Front: L C R, Side: L R, LFE
Sampling rate                    : 48.0 KHz
Bit depth                        : 16 bits
Stream size                      : 458 MiB (19%)
Alignment                        : Split accross interleaves
Interleave, duration             : 42 ms (1.00 video frame)
Interleave, preload duration     : 500 ms
Audio #2
ID                               : 2
Format                           : AC-3
Format/Info                      : Audio Coding 3
Mode extension                   : CM (complete main)
Codec ID                         : 2000
Duration                         : 2h 22mn
Bit rate mode                    : Constant
Bit rate                         : 448 Kbps
Channel(s)                       : 6 channels
Channel positions                : Front: L C R, Side: L R, LFE
Sampling rate                    : 48.0 KHz
Bit depth                        : 16 bits
Stream size                      : 458 MiB (19%)
Alignment                        : Split accross interleaves
Interleave, duration             : 42 ms (1.00 video frame)
Interleave, preload duration     : 500 ms
Over The Top 1987 1080p BDRip AAC x264-tomcat12/Over The Top 1987 1080p BDRip AAC x264-tomcat12.mp4 2.821 GB
Over The Top 1987 1080p BDRip AAC x264-tomcat12/Over The Top 1987 1080p SAMPLE.mp4 28.865 MB
Over The Top 1987 1080p BDRip AAC x264-tomcat12/subs idx/English.sub 8.44 MB
Gathering some info...

Register and log in Isohunt and see no captcha anymore!

4000 symbols left
Hash 64e45c41298ebf86b3d732abd67ef29b2469d0ac

Related torrents for "Over The Top 1987 1080p BDRip AAC x264-tomcat12"

Torrent search:

1987 x264 fullhd bd