Bullet to the Head 2013 FRENCH DVDRip XviD - CoWRY Verified

Size 734.078 MB   0 seeders     Added 2013-05-01 23:49:32

To download or stream you need BitLord. Visit them at BitLord.com
Bullet to the Head 2013 FRENCH DVDRip XviD - CoWRY


STATS:

Video
ID                               : 0
Format                           : MPEG-4 Visual
Format profile                   : Advanced Simple@L5
Format settings, BVOP            : 2      
Format settings, QPel            : No        
Format settings, GMC             : No warppoints     
Format settings, Matrix          : Default (MPEG)   
Muxing mode                      : Packed bitstream         
Codec ID                         : XVID  
Codec ID/Hint                    : XviD
Duration                         : 1h 32mn
Bit rate                         : 986 Kbps
Width                            : 720 pixels                   
Height                           : 320 pixels                    
Display aspect ratio             : 2.25:1        
Frame rate                       : 29.970 fps     
Color space                      : YUV
Chroma subsampling               : 4:2:0
Bit depth                        : 8 bits
Scan type                        : Progressive
Compression mode                 : Lossy
Bits/(Pixel*Frame)               : 0.243
Stream size                      : 643 MiB (92%)
Writing library                  : XviD 64

Audio

Format                           : MPEG Audio
Format version                   : Version 1
Format profile                   : Layer 3
Mode                             : Joint stereo
Mode extension                   : MS Stereo
Codec ID                         : 55
Codec ID/Hint                    : MP3
Duration                         : 1h 32mn
Bit rate mode                    : Constant
Bit rate                         : 128 Kbps
Channel(s)                       : 2 channels
Sampling rate                    : 48.0 KHz
Compression mode                 : Lossy
Stream size                      : 56 MiB (7%)
Alignment                        : Split accross interleaves
Interleave, duration             : 33 ms (1.00 video frame)
Interleave, preload duration     : 500 ms                     
Bullet to the Head 2013 FRENCH DVDRip XviD - CoWRY/Bullet to the Head 2013 FRENCH DVDRip XviD - CoWRY.nfo 2.061 KB
Bullet to the Head 2013 FRENCH DVDRip XviD - CoWRY/Bullet to the Head 2013 FRENCH DVDRip XviD - CoWRY/Bullet to the Head 2013 FRENCH DVDRip XviD - CoWRY.rar 733.685 MB
Bullet to the Head 2013 FRENCH DVDRip XviD - CoWRY/cover.jpg 155.637 KB
Gathering some info...

Register and log in Isohunt and see no captcha anymore!

4000 symbols left
Hash e7946c7c4bb6ff6ec8d99ee6378aea47e7a64fdd